The Nightingale

The Nightingale

Hot
JuancoJuanco   November 09, 2018  
Add to list
The Nightingale

Movie info

Title
Confirmed and upcoming movie titles only! Search before adding to avoid dupes.
The Nightingale
Year
The year the movie is set to be released.
2019
Genre
Pick one or multiple movie genres.
Cinema release
First cinema release date in any country.
January 31, 2019
Description
Set in 1825 in Tasmania, a convicted Irish woman seeks revenge for the death of her family. On his way, he joins an Aboriginal tracker named Billy, who also has a violent past that has left him marked.
Where you watch

Where you watch Email alert

Yes. The movie is online and reported below, Use the alert button to get notified when higher quality versions are available.

Download and stream reports

Can I download or stream The Nightingale? Yes. Reports of pirated torrents and streams are available below.
When will The Nightingale be available on digital platforms like iTunes, Amazon or Apple+? As of now, there's no release date announced. This includes iTunes, Amazon, Blu-Ray and DVD.

December 05, 2019
The.Nightingale.2018.1080p.BluRay.X264-AMIABLE
Video and audio quality: 5/5 | Source: BluRay

Submitted by: Mr. Meeseeks | Trust Rank level: Supreme Member
Format: Torrent | Site: RARBG
Video ID : 1 Format : AVC Format/Info : Advanced Video Codec Format profile : High@L4.1 Format settings : CABAC / 5 Ref Frames Format settings, CABAC : Yes Format settings, Reference frames : 5 frames Codec ID : V_MPEG4/ISO/AVC Duration : 2 h 16 min Bit rate : 8 826 kb/s Width : 1 488 pixels Height : 1 080 pixels Display aspect ratio : 1.378 Frame rate mode : Constant Frame rate : 23.976 (24000/1001) FPS Color space : YUV Chroma subsampling : 4:2:0 Bit depth : 8 bits Scan type : Progressive Bits/(Pixel*Frame) : 0.229 Stream size : 8.19 GiB (83%) Writing library : x264 core 158 r2988 7817004 Encoding settings : cabac=1 / ref=5 / deblock=1:-3:-3 / analyse=0x3:0x113 / me=umh / subme=8 / psy=1 / psy_rd=1.00:0.00 / mixed_ref=1 / me_range=32 / chroma_me=1 / trellis=2 / 8x8dct=1 / cqm=0 / deadzone=21,11 / fast_pskip=1 / chroma_qp_offset=-2 / threads=34 / lookahead_threads=5 / sliced_threads=0 / nr=0 / decimate=1 / interlaced=0 / bluray_compat=0 / constrained_intra=0 / bframes=3 / b_pyramid=2 / b_adapt=2 / b_bias=0 / direct=3 / weightb=1 / open_gop=0 / weightp=2 / keyint=240 / keyint_min=24 / scenecut=40 / intra_refresh=0 / rc_lookahead=50 / rc=2pass / mbtree=1 / bitrate=8826 / ratetol=1.0 / qcomp=0.60 / qpmin=0 / qpmax=69 / qpstep=4 / cplxblur=20.0 / qblur=0.5 / ip_ratio=1.40 / aq=3:0.70 Default : Yes Forced : No Statistics Tags Issue : no_variable_data 1970-01-01 00:00:00 / no_variable_data 2010-02-22 21:41:29 FromStats_BitRate : 8809674 FromStats_Duration : 02:16:16.293000000 FromStats_FrameCount : 196035 FromStats_StreamSize : 9003809704 Audio ID : 2 Format : DTS Format/Info : Digital Theater Systems Codec ID : A_DTS Duration : 2 h 16 min Bit rate mode : Constant Bit rate : 1 509 kb/s Channel(s) : 6 channels Channel layout : C L R Ls Rs LFE Sampling rate : 48.0 kHz Frame rate : 93.750 FPS (512 SPF) Bit depth : 24 bits Compression mode : Lossy Stream size : 1.44 GiB (15%) Language : English Default : Yes Forced : No Statistics Tags Issue : no_variable_data 1970-01-01 00:00:00 / no_variable_data 2010-02-22 21:41:29 FromStats_BitRate : 1509000 FromStats_Duration : 02:16:16.288000000 FromStats_FrameCount : 766527 FromStats_StreamSize : 1542252324 Text #1 ID : 3 Format : UTF-8 Codec ID : S_TEXT/UTF8 Codec ID/Info : UTF-8 Plain Text Language : English Default : No Forced : No Statistics Tags Issue : no_variable_data 1970-01-01 00:00:00 / no_variable_data 2010-02-22 21:41:29 FromStats_BitRate : 34 FromStats_Duration : 02:10:32.825000000 FromStats_FrameCount : 1243 FromStats_StreamSize : 33997 Text #2 ID : 4 Format : UTF-8 Codec ID : S_TEXT/UTF8 Codec ID/Info : UTF-8 Plain Text Title : SDH Language : English Default : No Forced : No Statistics Tags Issue : no_variable_data 1970-01-01 00:00:00 / no_variable_data 2010-02-22 21:41:29 FromStats_BitRate : 38 FromStats_Duration : 02:10:50.134000000 FromStats_FrameCount : 1430 FromStats_StreamSize : 38060
October 25, 2019
The.Nightingale.2018.1080p.AMZN.WEBRip.DDP5.1.x264-NTG
Video and audio quality: 5/5 | Source: Official web stream

Submitted by: Ivana 🌿 | Trust Rank level: Legend Member
Format: Torrent | Site: RARBG
Duration: 2hs 16min Resolution: 1440x1080 Language: English

Videos Add media

THE NIGHTINGALE Official Trailer (2019) Aisling Franciosi, Sam Claflin Movie HD
THE NIGHTINGALE Official Trailer (2019) Aisling Fr...