The Nan Movie

The Nan Movie

Mr. MeeseeksMr. Meeseeks   July 16, 2022  
Add to list
The Nan Movie

Movie info

Title
Confirmed and upcoming movie titles only! Search before adding to avoid dupes.
The Nan Movie
Year
The year the movie is set to be released.
2022
Director
Josie Rourke
Genre
Pick one or multiple movie genres.
Digital release
Official digital release date on services such as iTunes, Amazon, Netflix. It's the first known release date, without any country restriction. So if it's out on iTunes Russia first, this would be the digital release date.
July 22, 2022
Description
Starring Catherine Tate, Matthew Horne, Pete Bennett, and Katherine Parkinson.
Where you watch

Where you watch Email alert

Yes, it is available and reported below. Use the alert button to get notified when higher quality versions are available.

Download and stream reports

Is there a The Nan Movie torrent? Yes. Reports are available below.
When will The Nan Movie be available on VOD? It's set for a July 22, 2022 release.

July 22, 2022
The.Nan.Movie.2022.1080p.BluRay.x264-SCARE
Video and audio quality: 5/5 | Source: BluRay

Submitted by: Mr. Meeseeks | Trust Rank level: Supreme Member
Format: Torrent | Site: RARBG
Video ID : 1 Format : AVC Format/Info : Advanced Video Codec Format profile : High@L4.1 Format settings : CABAC / 4 Ref Frames Format settings, CABAC : Yes Format settings, Reference frames : 4 frames Codec ID : V_MPEG4/ISO/AVC Duration : 1 h 34 min Bit rate : 10.6 Mb/s Width : 1 920 pixels Height : 956 pixels Display aspect ratio : 2.008 Frame rate mode : Constant Frame rate : 23.976 (24000/1001) FPS Color space : YUV Chroma subsampling : 4:2:0 Bit depth : 8 bits Scan type : Progressive Bits/(Pixel*Frame) : 0.242 Stream size : 7.03 GiB (85%) Writing library : x264 core 164 r3094 bfc87b7 Encoding settings : cabac=1 / ref=4 / deblock=1:-3:-3 / analyse=0x3:0x133 / me=umh / subme=10 / psy=1 / psy_rd=1.20:0.00 / mixed_ref=1 / me_range=24 / chroma_me=1 / trellis=2 / 8x8dct=1 / cqm=0 / deadzone=21,11 / fast_pskip=0 / chroma_qp_offset=-2 / threads=24 / lookahead_threads=4 / sliced_threads=0 / nr=0 / decimate=0 / interlaced=0 / bluray_compat=0 / constrained_intra=0 / bframes=8 / b_pyramid=2 / b_adapt=2 / b_bias=0 / direct=3 / weightb=1 / open_gop=0 / weightp=2 / keyint=250 / keyint_min=23 / scenecut=40 / intra_refresh=0 / rc_lookahead=60 / rc=crf / mbtree=1 / crf=19.0 / qcomp=0.60 / qpmin=0 / qpmax=69 / qpstep=4 / ip_ratio=1.40 / aq=3:0.90 Default : Yes Forced : No Color range : Limited Matrix coefficients : BT.709 Audio ID : 2 Format : DTS XLL Format/Info : Digital Theater Systems Commercial name : DTS-HD Master Audio Codec ID : A_DTS Duration : 1 h 34 min Bit rate mode : Variable Bit rate : 1 877 kb/s Channel(s) : 6 channels Channel layout : C L R Ls Rs LFE Sampling rate : 48.0 kHz Frame rate : 93.750 FPS (512 SPF) Bit depth : 16 bits Compression mode : Lossless Stream size : 1.24 GiB (15%) Language : English Default : Yes Forced : No Text ID : 3 Format : PGS Muxing mode : zlib Codec ID : S_HDMV/PGS Codec ID/Info : Picture based subtitle format used on BDs/HD-DVDs Duration : 1 h 32 min Bit rate : 53.5 kb/s Count of elements : 3790 Stream size : 35.2 MiB (0%) Title : SDH Language : English Default : No Forced : No

Videos Add media

The Nan Movie - Official Trailer
The Nan Movie - Official Trailer