The Middle Man

The Middle Man

Mr. MeeseeksMr. Meeseeks   November 11, 2021  
Add to list
The Middle Man

Movie info

Title
Confirmed and upcoming movie titles only! Search before adding to avoid dupes.
The Middle Man
Year
The year the movie is set to be released.
2021
Director
Bent Hamer
Genre
Pick one or multiple movie genres.
Cinema release
First cinema release date in any country.
September 17, 2021
Description
Starring Pål Sverre Hagen, Tuva Novotny, Nina Andresen Borud, Trond Fausa Aurvåg, Aksel Hennie, Kenneth Wilson, Nicholas Bro, Don McKellar, Rossif Sutherland, and Paul Gross.
Where you watch

Where you watch Email alert

Yes, it is available and reported below. Use the alert button to get notified when higher quality versions are available.

Download and stream reports

Is there a The Middle Man torrent? Yes. Reports are available below.
When will The Middle Man be available on digital platforms like iTunes, Amazon or Apple+? As of now, there's no release date announced. This includes iTunes, Amazon, Blu-Ray and DVD.

November 29, 2021
The.Middle.Man.2021.1080p.WEBRip.DD5.1.x264-NOGRP
Video and audio quality: 5/5 | Source: Official web stream

Submitted by: Mr. Meeseeks | Trust Rank level: Supreme Member
Format: Torrent | Site: RARBG
Video ID : 1 Format : AVC Format/Info : Advanced Video Codec Format profile : High@L4 Format settings : CABAC / 5 Ref Frames Format settings, CABAC : Yes Format settings, Reference frames : 5 frames Codec ID : V_MPEG4/ISO/AVC Duration : 1 h 31 min Bit rate : 6 707 kb/s Width : 1 920 pixels Height : 804 pixels Display aspect ratio : 2.40:1 Frame rate mode : Constant Frame rate : 25.000 FPS Color space : YUV Chroma subsampling : 4:2:0 Bit depth : 8 bits Scan type : Progressive Bits/(Pixel*Frame) : 0.174 Stream size : 4.27 GiB (95%) Default : Yes Forced : No Color range : Limited Color primaries : BT.709 Transfer characteristics : BT.709 Matrix coefficients : BT.709 Audio ID : 2 Format : AC-3 Format/Info : Audio Coding 3 Commercial name : Dolby Digital Codec ID : A_AC3 Duration : 1 h 31 min Bit rate mode : Constant Bit rate : 384 kb/s Channel(s) : 6 channels Channel layout : L R C LFE Ls Rs Sampling rate : 48.0 kHz Frame rate : 31.250 FPS (1536 SPF) Compression mode : Lossy Stream size : 250 MiB (5%) Title : English Language : English Service kind : Complete Main Default : No Forced : No

Videos Add media

THE MIDDLE MAN Trailer | TIFF 2021
THE MIDDLE MAN Trailer | TIFF 2021