The LEGO Movie 2: The Second Part

The LEGO Movie 2: The Second Part

Hot
Mr. MeeseeksMr. Meeseeks   January 02, 2018  
News (0)
Add to list
The LEGO Movie 2: The Second Part

Movie info

TITLE
Confirmed and upcoming movie titles only! Search before adding to avoid dupes.
YEAR
The year the movie is set to be released.
2019
GENRE
Pick one or multiple movie genres.
CINEMA
First cinema release date in any country.
February 08, 2019
DESCRIPTION
The follow-up to the 2014 box office smash hit has been a main focus of Warner Bros. since before the first film even hit theaters. The masterminds behind the original Phil Lord and Christoper Miller have been hired to redo the script, which will be directed by Mike Mitchell. It’s planned for release in Februay of 2019, five years after the franchise hit theaters.
WHERE YOU WATCH

Where you watch Email alert

The movie is online and reported below, Use the alert button to get notified when higher quality versions are available.

Reports

April 21, 2019
The.Lego.Movie.2.The.Second.Part.2019.1080p.BluRay.x264.DTS-HDC
Video and audio quality: 5/5 | Source: BluRay

Submitted by: Mr. Meeseeks | Trust Rank level: Supreme Member
Format: Torrent | Site: RARBG
Video ID : 1 Format : AVC Format/Info : Advanced Video Codec Format profile : [email protected] Format settings : CABAC / 5 Ref Frames Format settings, CABAC : Yes Format settings, ReFrames : 5 frames Codec ID : V_MPEG4/ISO/AVC Duration : 1 h 47 min Bit rate : 13.0 Mb/s Width : 1 920 pixels Height : 804 pixels Display aspect ratio : 2.40:1 Frame rate mode : Constant Frame rate : 23.976 (24000/1001) FPS Color space : YUV Chroma subsampling : 4:2:0 Bit depth : 8 bits Scan type : Progressive Bits/(Pixel*Frame) : 0.351 Stream size : 9.73 GiB (90%) Writing library : x264 core 152 r2851kMod ba24899 Encoding settings : cabac=1 / ref=5 / deblock=1:-1:-1 / analyse=0x3:0x133 / me=umh / subme=11 / psy=1 / fade_compensate=0.00 / psy_rd=0.80:0.00 / mixed_ref=1 / me_range=64 / chroma_me=1 / trellis=2 / 8x8dct=1 / cqm=0 / deadzone=21,11 / fast_pskip=0 / chroma_qp_offset=-2 / threads=24 / lookahead_threads=4 / sliced_threads=0 / nr=0 / decimate=0 / interlaced=0 / bluray_compat=0 / constrained_intra=0 / bframes=8 / b_pyramid=2 / b_adapt=2 / b_bias=0 / direct=3 / weightb=1 / open_gop=0 / weightp=2 / keyint=240 / keyint_min=2 / scenecut=40 / intra_refresh=0 / rc=2pass / mbtree=0 / bitrate=13000 / ratetol=1.0 / qcomp=0.70 / qpmin=0 / qpmax=69 / qpstep=4 / cplxblur=20.0 / qblur=0.5 / ip_ratio=1.30 / pb_ratio=1.20 / aq=3:1.10 Language : English Default : Yes Forced : No Audio ID : 2 Format : DTS Format/Info : Digital Theater Systems Codec ID : A_DTS Duration : 1 h 47 min Bit rate mode : Constant Bit rate : 1 509 kb/s Channel(s) : 6 channels Channel layout : C L R Ls Rs LFE Sampling rate : 48.0 kHz Frame rate : 93.750 FPS (512 SPF) Bit depth : 24 bits Compression mode : Lossy Stream size : 1.13 GiB (10%) Language : English Default : Yes Forced : No Text #1 ID : 3 Format : UTF-8 Codec ID : S_TEXT/UTF8 Codec ID/Info : UTF-8 Plain Text Duration : 1 h 38 min Bit rate : 81 b/s Count of elements : 1930 Stream size : 58.8 KiB (0%) Language : English Default : Yes Forced : No Text #2 ID : 4 Format : UTF-8 Codec ID : S_TEXT/UTF8 Codec ID/Info : UTF-8 Plain Text Duration : 1 h 38 min Bit rate : 94 b/s Count of elements : 2137 Stream size : 67.5 KiB (0%) Title : SDH Language : English Default : No Forced : No
March 09, 2019
The.Lego.Movie.2.The.Second.Part.2019.1080p.WEBRip.x264.AAC2.0-STUTTERSHIT
Video and audio quality: 5/5 | Source: Official web stream

Submitted by: Ивана | Trust Rank level: Hero member
Format: Torrent | Site: RARBG
Duration: 1h 45min Resolution: 1920x800 Language: English
March 08, 2019
The Lego Movie 2 2019 720p WEB-DL-1XBET
Video and audio quality: 4/5 | Source: Foreign web stream

Submitted by: Mavoy | Trust Rank level: Professional
Format: Torrent | Site: The Pirate Bay
Some watermarks, but legit HD copy.
February 10, 2019
The Lego Movie 2 2019 720p HDCAM-1XBET[TGx]
Video and audio quality: 1/5 | Source: Camera

Submitted by: Costa | Trust Rank level: Hero member
Format: Torrent | Site: torrentgalaxy
MEDIAINFO Container = MPEG-4 (mp4) Duration = 01:34:30.976 Filesize = 2 GiB Video Codec info = AVC [email protected] | avc1 Resolution = 1280x536 Display AR = 2.388 | 2.40:1 Bitrate = 3 472 kb/s Framerate = CFR 29.970 Color space = YUV Chroma subsampling = 4:2:0 Encoder = x264 - core 148 Audio Codec info = AC-3 | ac-3 Channels = 2 Bitrate = CBR 224 kb/s Samplerate = 48.0 kHz Language = English

Videos Add media

The LEGO Movie 2: The Second Part – Official Teaser Trailer [HD]
The LEGO Movie 2: The Second Part – Official Tea...

Movie News

There are no member news items for this movie.
To write a comment please register or