The Last Letter From Your Lover

The Last Letter From Your Lover

Mr. MeeseeksMr. Meeseeks   July 06, 2021  
Add to list
The Last Letter From Your Lover

Movie info

Title
Confirmed and upcoming movie titles only! Search before adding to avoid dupes.
The Last Letter From Your Lover
Year
The year the movie is set to be released.
2021
Director
Augustine Frizzell
Genre
Pick one or multiple movie genres.
Digital release
Official digital release date on services such as iTunes, Amazon, Netflix. It's the first known release date, without any country restriction. So if it's out on iTunes Russia first, this would be the digital release date.
July 23, 2021
Description
Starring Felicity Jones, Shailene Woodley, Callum Turner, Nabhaan Rizwan, Joe Alwyn, Emma Appleton, and Ncuti Gatwa.
Where you watch

Where you watch Email alert

Yes, it is available and reported below. Use the alert button to get notified when higher quality versions are available.

Download and stream reports

Is there a The Last Letter From Your Lover torrent? Yes. Reports are available below.
When will The Last Letter From Your Lover be available on VOD? It's set for a July 23, 2021 release.

July 23, 2021
The.Last.Letter.From.Your.Lover.2021.1080p.NF.WEB-DL.x265.10bit.HDR.DDP5.1.Atmos-AGLET
Video and audio quality: 5/5 | Source: Official web stream

Submitted by: Mr. Meeseeks | Trust Rank level: Supreme Member
Format: Torrent | Site: 1337x
Video ID : 1 Format : HEVC Format/Info : High Efficiency Video Coding Format profile : Main 10@L4@Main HDR format : SMPTE ST 2086, HDR10 compatible Codec ID : V_MPEGH/ISO/HEVC Duration : 1 h 49 min Bit rate : 4 810 kb/s Width : 1 920 pixels Height : 1 080 pixels Display aspect ratio : 16:9 Frame rate mode : Constant Frame rate : 24.000 FPS Color space : YUV Chroma subsampling : 4:2:0 (Type 2) Bit depth : 10 bits Bits/(Pixel*Frame) : 0.097 Stream size : 3.68 GiB (86%) Default : Yes Forced : No Color range : Limited Color primaries : BT.2020 Transfer characteristics : PQ Matrix coefficients : BT.2020 non-constant Mastering display color primaries : Display P3 Mastering display luminance : min: 0.0050 cd/m2, max: 4000 cd/m2 Maximum Content Light Level : 738 cd/m2 Maximum Frame-Average Light Level : 96 cd/m2 Audio ID : 2 Format : E-AC-3 JOC Format/Info : Enhanced AC-3 with Joint Object Coding Commercial name : Dolby Digital Plus with Dolby Atmos Codec ID : A_EAC3 Duration : 1 h 50 min Bit rate mode : Constant Bit rate : 768 kb/s Channel(s) : 6 channels Channel layout : L R C LFE Ls Rs Sampling rate : 48.0 kHz Frame rate : 31.250 FPS (1536 SPF) Compression mode : Lossy Stream size : 608 MiB (14%) Language : English Service kind : Complete Main Default : Yes Forced : No Complexity index : 16 Number of dynamic objects : 15 Bed channel count : 1 channel Bed channel configuration : LFE Text #1 ID : 3 Format : UTF-8 Codec ID : S_TEXT/UTF8 Codec ID/Info : UTF-8 Plain Text Duration : 1 h 47 min Bit rate : 63 b/s Count of elements : 1438 Stream size : 50.4 KiB (0%) Title : English (SDH) Language : English Default : No Forced : No

Videos Add media

The Last Letter From Your Lover | Official Trailer | Netflix
The Last Letter From Your Lover | Official Trailer...