The Last Days of American Crime

The Last Days of American Crime

Hot
Mr. MeeseeksMr. Meeseeks   April 01, 2019  
Add to list
The Last Days of American Crime

Movie info

Title
Confirmed and upcoming movie titles only! Search before adding to avoid dupes.
The Last Days of American Crime
Year
The year the movie is set to be released.
2020
Genre
Pick one or multiple movie genres.
Digital release
Official digital release date on services such as iTunes, Amazon, Netflix. It's the first known release date, without any country restriction. So if it's out on iTunes Russia first, this would be the digital release date.
June 05, 2020
Description
Starring Édgar Ramirez, Anna Brewster, Michael Pitt, Sharlto Copley, and Sean Cameron Michael.
Where you watch

Where you watch Email alert

Yes, it is available and reported below. Use the alert button to get notified when higher quality versions are available.

Download and stream reports

Is there a The Last Days of American Crime torrent? Yes. Reports are available below.
When will The Last Days of American Crime be available on VOD? It's set for a June 05, 2020 release.

June 05, 2020
The.Last.Days.of.American.Crime.2020.1080p.NF.WEBRip.DD5.1.x264-FGT
Video and audio quality: 5/5 | Source: Official web stream

Submitted by: Mr. Meeseeks | Trust Rank level: Supreme Member
Format: Torrent | Site: RARBG
Video ID : 1 Format : AVC Format/Info : Advanced Video Codec Format profile : Main@L4 Format settings : CABAC / 3 Ref Frames Format settings, CABAC : Yes Format settings, Reference frames : 3 frames Codec ID : V_MPEG4/ISO/AVC Duration : 2 h 29 min Bit rate mode : Variable Bit rate : 3 830 kb/s Maximum bit rate : 5 745 kb/s Width : 1 920 pixels Height : 1 080 pixels Display aspect ratio : 16:9 Frame rate mode : Constant Frame rate : 24.000 FPS Color space : YUV Chroma subsampling : 4:2:0 Bit depth : 8 bits Scan type : Progressive Bits/(Pixel*Frame) : 0.077 Stream size : 3.90 GiB (85%) Title : The.Last.Days.of.American.Crime.2020.1080p.NF.WEBRip.DD5.1.x264-FGT Writing library : x264 core 148 r2717 0d2410d Encoding settings : cabac=1 / ref=3 / deblock=1:0:0 / analyse=0x1:0x111 / me=umh / subme=10 / psy=1 / psy_rd=1.00:0.00 / mixed_ref=1 / me_range=24 / chroma_me=1 / trellis=2 / 8x8dct=0 / cqm=0 / deadzone=21,11 / fast_pskip=1 / chroma_qp_offset=-2 / threads=8 / lookahead_threads=1 / sliced_threads=0 / nr=0 / decimate=1 / interlaced=0 / bluray_compat=0 / stitchable=1 / constrained_intra=0 / bframes=2 / b_pyramid=0 / b_adapt=2 / b_bias=0 / direct=3 / weightb=1 / open_gop=0 / weightp=2 / keyint=250 / keyint_min=24 / scenecut=0 / intra_refresh=0 / rc_lookahead=48 / rc=2pass / mbtree=1 / bitrate=3830 / ratetol=1.0 / qcomp=0.50 / qpmin=6 / qpmax=51 / qpstep=4 / cplxblur=20.0 / qblur=0.5 / vbv_maxrate=5745 / vbv_bufsize=7660 / nal_hrd=vbr / filler=0 / ip_ratio=1.40 / aq=1:1.00 Language : English Default : Yes Forced : No Audio ID : 2 Format : AC-3 Format/Info : Audio Coding 3 Commercial name : Dolby Digital Codec ID : A_AC3 Duration : 2 h 29 min Bit rate mode : Constant Bit rate : 640 kb/s Channel(s) : 6 channels Channel layout : L R C LFE Ls Rs Sampling rate : 48.0 kHz Frame rate : 31.250 FPS (1536 SPF) Bit depth : 16 bits Compression mode : Lossy Stream size : 682 MiB (15%) Title : The.Last.Days.of.American.Crime.2020.1080p.NF.WEBRip.DD5.1.x264-FGT Language : English Service kind : Complete Main Default : Yes Forced : No Text #1 ID : 3 Format : UTF-8 Codec ID : S_TEXT/UTF8 Codec ID/Info : UTF-8 Plain Text Duration : 2 h 27 min Bit rate : 63 b/s Count of elements : 1366 Stream size : 68.5 KiB (0%) Title : Arabic Language : Arabic Default : No Forced : No

Videos Add media

The Last Days of American Crime | Official Trailer | Netflix
The Last Days of American Crime | Official Trailer...