The Invisible Life of Eurídice Gusmão

The Invisible Life of Eurídice Gusmão

Hot
Mr. MeeseeksMr. Meeseeks   May 27, 2019  
Add to list
The Invisible Life of Eurídice Gusmão

Movie info

Title
Confirmed and upcoming movie titles only! Search before adding to avoid dupes.
The Invisible Life of Eurídice Gusmão
Year
The year the movie is set to be released.
2019
Genre
Pick one or multiple movie genres.
Cinema release
First cinema release date in any country.
September 19, 2019
Description
Starring Fernanda Montenegro, Júlia Stockler, Carol Duarte, Gregório Duvivier, Marcio Vito, and Bárbara Santos.
Where you watch

Where you watch Email alert

The movie is online and reported below, Use the alert button to get notified when higher quality versions are available.

Download and stream reports

Can I download or stream The Invisible Life of Eurídice Gusmão? Yes. Reports of pirated torrents and streams are available below.
When will The Invisible Life of Eurídice Gusmão be available on digital platforms like iTunes, Amazon or Apple+? As of now, there's no release date announced. This includes iTunes, Amazon, Blu-Ray and DVD.

February 17, 2020
Invisible.Life.2019.DVDRip.x264.AC3.HORiZON-ArtSubs
Video and audio quality: 4/5 | Source: DVD

Submitted by: Mavoy | Trust Rank level: Hero member
Format: Torrent | Site: 1337x
Italian subtitle only General Complete name : Invisible.Life.2019.DVDRip.x264.AC3.HORiZON-ArtSubs.mkv Format : Matroska Format version : Version 2 File size : 2.49 GiB Duration : 2 h 15 min Overall bit rate : 2 632 kb/s Encoded date : UTC 2020-02-17 22:49:00 Writing application : DVDFab 11.0.4.2 Writing library : libebml v1.3.4 + libmatroska v1.4.5 Video ID : 1 Format : AVC Format/Info : Advanced Video Codec Format profile : High@L4.1 Format settings : CABAC / 1 Ref Frames Format settings, CABAC : Yes Format settings, RefFrames : 1 frame Format settings, GOP : M=1, N=25 Codec ID : V_MPEG4/ISO/AVC Duration : 2 h 15 min Bit rate mode : Constant Bit rate : 2 200 kb/s Width : 720 pixels Height : 300 pixels Display aspect ratio : 2.40:1 Frame rate mode : Constant Frame rate : 25.000 FPS Color space : YUV Chroma subsampling : 4:2:0 Bit depth : 8 bits Scan type : Progressive Bits/(Pixel*Frame) : 0.407 Stream size : 2.06 GiB (83%) Default : Yes Forced : No Color range : Limited Color primaries : BT.709 Transfer characteristics : BT.709 Matrix coefficients : BT.709 Audio ID : 2 Format : AC-3 Format/Info : Audio Coding 3 Codec ID : A_AC3 Duration : 2 h 15 min Bit rate mode : Constant Bit rate : 448 kb/s Channel(s) : 6 channels Channel positions : Front: L C R, Side: L R, LFE Sampling rate : 48.0 kHz Frame rate : 31.250 FPS (1536 SPF) Bit depth : 16 bits Compression mode : Lossy Stream size : 433 MiB (17%) Service kind : Complete Main Default : Yes Forced : No Text ID : 3 Format : VobSub Codec ID : S_VOBSUB Codec ID/Info : Picture based subtitle format used on DVDs Duration : 2 h 6 min Bit rate : 1 850 b/s Count of elements : 1315 Stream size : 1.67 MiB (0%) Language : Italian Default : No Forced : No

Videos Add media

Invisible Life - Official Trailer | Amazon Studios
Invisible Life - Official Trailer | Amazon Studios
THE INVISIBLE LIFE OF EURÍDICE GUSMÃO by Karim Aïnouz (Official International Trailer HD)
THE INVISIBLE LIFE OF EURÍDICE GUSMÃO by Karim A...