The Intruder

The Intruder

Hot
Mr. MeeseeksMr. Meeseeks   February 03, 2019  
Add to list
The Intruder

Movie info

TITLE
Confirmed and upcoming movie titles only! Search before adding to avoid dupes.
The Intruder
YEAR
The year the movie is set to be released.
2019
DIRECTOR
GENRE
Pick one or multiple movie genres.
CINEMA
First cinema release date in any country.
May 03, 2019
DESCRIPTION
Starring Dennis Quaid, Michael Ealy, Meagan Good, and Joseph Sikora.
WHERE YOU WATCH

Where you watch Email alert

The movie is online and reported below, Use the alert button to get notified when higher quality versions are available.

Reports

Is The Intruder available online? Yes. Reports of pirated torrents and streams are available below.
When will The Intruder be available on digital platforms like iTunes or Amazon? As of now, there's no release data announced. This includes iTunes, Amazon, Blu-Ray and DVD.

July 20, 2019
The.Intruder.2019.1080p.BluRay.x264-DRONES
Video and audio quality: 5/5 | Source: BluRay

Submitted by: Tobden | Trust Rank level: Professional
Format: Torrent | Site: Rarbg
Visual : 1920x800 9228Kbps 23.976 Acoustic : English DTS 1509Kbps 6ch Textual : English Target Size : 7835MB Mission Info : https://www.imdb.com/title/tt6722030 PG Rating: PG-13 IMDB Rating: 5.3/10 from 2925 users Updated : 2019-07-20 Metacritic: 39 Genres: Drama , Horror , Mystery , Thriller
July 14, 2019
The.Intruder.2019.1080p.WEB-DL.DD5.1.H264-FGT
Video and audio quality: 4/5 | Source: Official web stream

Submitted by: Cupio Dissolvi | Trust Rank level: Standard member
Format: Official stream | Site: Rarbg
MediaInfo « Video ID : 1 Format : AVC Format/Info : Advanced Video Codec Format profile : [email protected] Format settings : CABAC / 5 Ref Frames Format settings, CABAC : Yes Format settings, Reference frames : 5 frames Codec ID : V_MPEG4/ISO/AVC Duration : 1 h 42 min Bit rate : 4 518 kb/s Width : 1 920 pixels Height : 790 pixels Display aspect ratio : 2.40:1 Frame rate mode : Constant Frame rate : 23.976 (24000/1001) FPS Color space : YUV Chroma subsampling : 4:2:0 Bit depth : 8 bits Scan type : Progressive Bits/(Pixel*Frame) : 0.124 Stream size : 3.22 GiB (92%) Title : The.Intruder.2019.1080p.WEB-DL.DD5.1.H264-FGT Language : English Default : Yes Forced : No Color range : Limited Color primaries : BT.709 Transfer characteristics : BT.709 Matrix coefficients : BT.709 Audio ID : 2 Format : AC-3 Format/Info : Audio Coding 3 Commercial name : Dolby Digital Codec ID : A_AC3 Duration : 1 h 42 min Bit rate mode : Constant Bit rate : 384 kb/s Channel(s) : 6 channels Channel layout : L R C LFE Ls Rs Sampling rate : 48.0 kHz Frame rate : 31.250 FPS (1536 SPF) Bit depth : 16 bits Compression mode : Lossy Stream size : 280 MiB (8%) Title : The.Intruder.2019.1080p.WEB-DL.DD5.1.H264-FGT Language : English Service kind : Complete Main Default : Yes Forced : No Menu 00:00:00.000 : en:1 00:05:59.275 : en:2 00:12:51.312 : en:3 00:17:12.239 : en:4 00:25:28.360 : en:5 00:32:56.683 : en:6 00:36:17.592 : en:7 00:41:54.595 : en:8 00:50:14.177 : en:9 00:55:52.640 : en:10 00:58:29.880 : en:11 01:08:55.505 : en:12 01:14:02.562 : en:13 01:18:21.737 : en:14 01:25:18.028 : en:15 01:32:08.063 : en:16 Trailer: Play trailer
June 23, 2019
The Intruder 2019 HDCAM-1XBET
Video and audio quality: 1/5 | Source: Camera

Submitted by: Mr. Meeseeks | Trust Rank level: Supreme Member
Format: Torrent | Site: TorrentGalaxy
Container = Matroska (mkv) Duration = 01:37:28.032 Filesize = 1 GiB Overall bitrate = 2 007 kb/s Video Codec info = AVC [email protected] | V_MPEG4/ISO/AVC Resolution = 720x314 Display AR = 2.293 | 2.25:1 Bitrate = 1 778 kb/s Framerate = CFR 29.970 Color space = YUV Chroma subsampling = 4:2:0 Encoder = x264 - core 148 Audio Codec info = AC-3 | A_AC3 Channels = 2 Bitrate = CBR 224 kb/s Samplerate = 48.0 kHz Language = English

Videos Add media

THE INTRUDER - Final Trailer (HD)
THE INTRUDER - Final Trailer (HD)
THE INTRUDER - Official Trailer (HD)
THE INTRUDER - Official Trailer (HD)