The Immaculate Room

The Immaculate Room

Mr. MeeseeksMr. Meeseeks   August 16, 2022  
Add to list
The Immaculate Room

Movie info

Title
Confirmed and upcoming movie titles only! Search before adding to avoid dupes.
The Immaculate Room
Year
The year the movie is set to be released.
2022
Director
Mukunda Michael Dewil
Genre
Pick one or multiple movie genres.
Digital release
Official digital release date on services such as iTunes, Amazon, Netflix. It's the first known release date, without any country restriction. So if it's out on iTunes Russia first, this would be the digital release date.
August 19, 2022
Description
Starring Emile Hirsch, Kate Bosworth, Ashley Greene Khoury, and M. Emmet Walsh.
Where you watch

Where you watch Email alert

Yes, it is available and reported below. Use the alert button to get notified when higher quality versions are available.

Download and stream reports

Is there a The Immaculate Room torrent? Yes. Reports are available below.
When will The Immaculate Room be available on VOD? It's set for a August 19, 2022 release.

August 19, 2022
The.Immaculate.Room.2022.2160p.WEB-DL.x265.10bit.SDR.DD5.1-CM
Video and audio quality: 5/5 | Source: Official web stream

Submitted by: Mr. Meeseeks | Trust Rank level: Supreme Member
Format: Torrent | Site: RARBG
Video ID : 1 Format : HEVC Format/Info : High Efficiency Video Coding Format profile : Main 10@L5@High Codec ID : V_MPEGH/ISO/HEVC Duration : 1 h 32 min Bit rate : 11.9 Mb/s Width : 3 836 pixels Height : 1 600 pixels Display aspect ratio : 2.40:1 Original display aspect ratio : 2.40:1 Frame rate mode : Constant Frame rate : 23.976 FPS Color space : YUV Chroma subsampling : 4:2:0 Bit depth : 10 bits Bits/(Pixel*Frame) : 0.081 Stream size : 7.66 GiB (97%) Language : English Default : Yes Forced : No Color range : Limited Color primaries : BT.709 Transfer characteristics : BT.709 Matrix coefficients : BT.709 Audio ID : 2 Format : AC-3 Format/Info : Audio Coding 3 Commercial name : Dolby Digital Codec ID : A_AC3 Duration : 1 h 32 min Bit rate mode : Constant Bit rate : 384 kb/s Channel(s) : 6 channels Channel layout : L R C LFE Ls Rs Sampling rate : 48.0 kHz Frame rate : 31.250 FPS (1536 SPF) Compression mode : Lossy Stream size : 253 MiB (3%) Language : English Service kind : Complete Main Default : Yes Forced : No

Videos Add media

The Immaculate Room - Official Trailer
The Immaculate Room - Official Trailer