The Hurricane Heist

The Hurricane Heist

Mr. MeeseeksMr. Meeseeks   February 16, 2018  
News (0)
Add to list
The Hurricane Heist

Movie info

TITLE
Confirmed and upcoming movie titles only! Search before adding to avoid dupes.
YEAR
The year the movie is set to be released.
2018
DIRECTOR
GENRE
Pick one or multiple movie genres.
CINEMA
First cinema release date in any country.
February 08, 2018
DESCRIPTION
From director Rob Cohen, a group of thieves plan a heist at the United States Treasury during a category five hurricane. The cast features Maggie Grace, Tony Kebbell, Ryan Kwanten, Ralph Ineson, Melissa Bolona, James Cutler, and Ben Cross.
WHERE YOU WATCH

Where you watch Email alert

The movie is online and reported below, Use the alert button to get notified when higher quality versions are available.

Reports

June 10, 2018
The.Hurricane.Heist.2018.1080p.BluRay.x264.DTS-HD.MA.7.1-FGT
Video and audio quality: 5/5 | Source: BluRay

Submitted by: Mr. Meeseeks | Trust Rank level: Legend Member
Format: Torrent | Site: RARBG
Video ID : 1 Format : AVC Format/Info : Advanced Video Codec Format profile : [email protected] Format settings : CABAC / 5 Ref Frames Format settings, CABAC : Yes Format settings, ReFrames : 5 frames Codec ID : V_MPEG4/ISO/AVC Duration : 1 h 43 min Bit rate : 9 986 kb/s Width : 1 920 pixels Height : 808 pixels Display aspect ratio : 2.40:1 Frame rate mode : Constant Frame rate : 23.976 FPS Color space : YUV Chroma subsampling : 4:2:0 Bit depth : 8 bits Scan type : Progressive Bits/(Pixel*Frame) : 0.268 Stream size : 7.18 GiB (67%) Title : The.Hurricane.Heist.2018.1080p.BluRay.x264.DTS-HD.MA.7.1-FGT Writing library : x264 core 155 r2901 7d0ff22 Encoding settings : cabac=1 / ref=5 / deblock=1:0:0 / analyse=0x3:0x133 / me=umh / subme=7 / psy=1 / psy_rd=1.00:0.00 / mixed_ref=1 / me_range=16 / chroma_me=1 / trellis=1 / 8x8dct=1 / cqm=0 / deadzone=21,11 / fast_pskip=0 / chroma_qp_offset=-2 / threads=25 / lookahead_threads=4 / sliced_threads=0 / nr=0 / decimate=1 / interlaced=0 / bluray_compat=0 / constrained_intra=0 / bframes=3 / b_pyramid=2 / b_adapt=1 / b_bias=0 / direct=1 / weightb=1 / open_gop=0 / weightp=2 / keyint=250 / keyint_min=23 / scenecut=40 / intra_refresh=0 / rc_lookahead=40 / rc=2pass / mbtree=1 / bitrate=9986 / ratetol=1.0 / qcomp=0.60 / qpmin=0 / qpmax=69 / qpstep=4 / cplxblur=20.0 / qblur=0.5 / ip_ratio=1.40 / aq=1:1.00 Language : English Default : Yes Forced : No Audio ID : 2 Format : DTS Format/Info : Digital Theater Systems Format profile : MA / Core Codec ID : A_DTS Duration : 1 h 43 min Bit rate mode : Variable / Constant Bit rate : 4 836 kb/s / 1 509 kb/s Channel(s) : 8 channels / 6 channels Channel positions : Front: L C R, Side: L R, Back: L R, LFE / Front: L C R, Side: L R, LFE Sampling rate : 48.0 kHz Frame rate : 93.750 FPS (512 SPF) Bit depth : 24 bits Compression mode : Lossless / Lossy Stream size : 3.48 GiB (33%) Title : The.Hurricane.Heist.2018.1080p.BluRay.x264.DTS-HD.MA.7.1-FGT Language : English Default : Yes Forced : No Text #1 ID : 3 Format : UTF-8 Codec ID : S_TEXT/UTF8 Codec ID/Info : UTF-8 Plain Text Duration : 1 h 32 min Bit rate : 53 b/s Count of elements : 1121 Stream size : 36.6 KiB (0%) Title : English-SRT Language : English Default : Yes Forced : No Text #2 ID : 4 Format : PGS Muxing mode : zlib Codec ID : S_HDMV/PGS Codec ID/Info : Picture based subtitle format used on BDs/HD-DVDs Duration : 1 h 42 min Bit rate : 36.9 kb/s Count of elements : 2496 Stream size : 27.0 MiB (0%) Title : English-PGS Language : English Default : No Forced : No Text #3 ID : 5 Format : PGS Muxing mode : zlib Codec ID : S_HDMV/PGS Codec ID/Info : Picture based subtitle format used on BDs/HD-DVDs Duration : 1 h 32 min Bit rate : 35.9 kb/s Count of elements : 2461 Stream size : 23.8 MiB (0%) Title : Spanish-PGS Language : Spanish Default : No Forced : No Menu 00:00:00.000 : en:00:00:00.000 00:05:41.258 : en:00:05:41.258 00:13:15.253 : en:00:13:15.253 00:20:49.456 : en:00:20:49.456 00:25:48.046 : en:00:25:48.046 00:30:08.974 : en:00:30:08.974 00:35:00.890 : en:00:35:00.890 00:40:40.813 : en:00:40:40.813 00:45:48.162 : en:00:45:48.162 00:52:34.359 : en:00:52:34.359 01:00:22.244 : en:01:00:22.244 01:06:49.881 : en:01:06:49.881 01:11:02.341 : en:01:11:02.341 01:17:43.951 : en:01:17:43.951 01:25:06.351 : en:01:25:06.351 01:32:38.595 : en:01:32:38.595
April 06, 2018
The Hurricane Heist.720p.HDRip.X264.AC3-EVO
Video and audio quality: 5/5 | Source: Official web stream

Submitted by: Mr. Meeseeks | Trust Rank level: Legend Member
Format: Torrent | Site: 1337x
[Video Bitrate]:.............: 3631 kbps [Duration]:.............: 1h 38mn [Video Codec]:.............: AVC [Resolution]:.............: 1280x544 px [Aspect Ratio]:.............: 2.35:1 [Audio Codec]:.............: AC-3 [Audio Bitrate]:.............: 192 kbps [Audio Channels]:.............: 2.0ch [Audio Language]:.............: English
April 03, 2018
The Hurricane Heist.2018.HC.HDRip.XviD.AC3-EVO
Video and audio quality: 5/5 | Source: Foreign web stream

Submitted by: Mr. Meeseeks | Trust Rank level: Legend Member
Format: Torrent | Site: TorrentingMe
ViDEO: 1600 Kbps -2 Passes RESOLUTiON: 720x304 RUNTiME: 1h 42m 43s SUBTiTLES: Korean (Hardcoded) AUDiO: 192 Kbps AC3 2.0 LANGUAGE: ENGLiSH ENCODER: DdHD
March 11, 2018
The Hurricane Heist (2018) English HDCAM-Rip - 700MB - x264 - 1CD - AAC movCr
Video and audio quality: 1/5 | Source: Camera

Submitted by: armiestice | Trust Rank level: Standard member
Format: Torrent | Site: 1337x
RECORDED FROM CINEMA

Videos Add media

The Hurricane Heist Trailer #1 (2018) | Movieclips Indie
The Hurricane Heist Trailer #1 (2018) | Movieclips...

Movie News

There are no member news items for this movie.
To write a comment please register or