The Hummingbird Project

The Hummingbird Project

Ivana 🌿Ivana 🌿   January 26, 2019  
Add to list
The Hummingbird Project

Movie info

TITLE
Confirmed and upcoming movie titles only! Search before adding to avoid dupes.
The Hummingbird Project
YEAR
The year the movie is set to be released.
2019
DIRECTOR
GENRE
Pick one or multiple movie genres.
CINEMA
First cinema release date in any country.
March 15, 2019
DESCRIPTION
Starring Jesse Eisenberg, Alexander Skarsgård, Michael Mando and Salma Hayek.
WHERE YOU WATCH

Where you watch Email alert

The movie is online and reported below, Use the alert button to get notified when higher quality versions are available.

Reports

Is The Hummingbird Project available online? Yes. Reports of pirated torrents and streams are available below.
When will The Hummingbird Project be available on digital platforms like iTunes or Amazon? As of now, there's no release data announced. This includes iTunes, Amazon, Blu-Ray and DVD.

July 01, 2019
The.Hummingbird.Project.2018.720p.BluRay.x264-AAA
Video and audio quality: 5/5 | Source: BluRay

Submitted by: Mr. Meeseeks | Trust Rank level: Supreme Member
Format: Torrent | Site: RARBG
Video ID : 1 Format : AVC Format/Info : Advanced Video Codec Format profile : [email protected] Format settings : CABAC / 5 Ref Frames Format settings, CABAC : Yes Format settings, ReFrames : 5 frames Codec ID : V_MPEG4/ISO/AVC Duration : 1 h 50 min Bit rate : 4 145 kb/s Width : 1 280 pixels Height : 544 pixels Display aspect ratio : 2.35:1 Frame rate mode : Constant Frame rate : 23.976 (24000/1001) FPS Color space : YUV Chroma subsampling : 4:2:0 Bit depth : 8 bits Scan type : Progressive Bits/(Pixel*Frame) : 0.248 Stream size : 3.20 GiB (73%) Writing library : x264 core 157 r2969 d4099dd Encoding settings : cabac=1 / ref=5 / deblock=1:1:1 / analyse=0x3:0x133 / me=umh / subme=8 / psy=1 / psy_rd=1.00:0.00 / mixed_ref=1 / me_range=16 / chroma_me=1 / trellis=2 / 8x8dct=1 / cqm=0 / deadzone=21,11 / fast_pskip=0 / chroma_qp_offset=-2 / threads=12 / lookahead_threads=2 / sliced_threads=0 / nr=0 / decimate=1 / interlaced=0 / bluray_compat=0 / constrained_intra=0 / bframes=3 / b_pyramid=2 / b_adapt=2 / b_bias=0 / direct=3 / weightb=1 / open_gop=0 / weightp=2 / keyint=250 / keyint_min=23 / scenecut=40 / intra_refresh=0 / rc_lookahead=50 / rc=2pass / mbtree=1 / bitrate=4145 / ratetol=1.0 / qcomp=0.60 / qpmin=0 / qpmax=69 / qpstep=4 / cplxblur=20.0 / qblur=0.5 / ip_ratio=1.40 / aq=1:1.00 Language : English Default : Yes Forced : No Audio ID : 2 Format : DTS Format/Info : Digital Theater Systems Codec ID : A_DTS Duration : 1 h 50 min Bit rate mode : Constant Bit rate : 1 509 kb/s Channel(s) : 6 channels Channel layout : C L R Ls Rs LFE Sampling rate : 48.0 kHz Frame rate : 93.750 FPS (512 SPF) Bit depth : 24 bits Compression mode : Lossy Stream size : 1.17 GiB (27%) Language : English Default : Yes Forced : No Text ID : 3 Format : UTF-8 Codec ID : S_TEXT/UTF8 Codec ID/Info : UTF-8 Plain Text Duration : 1 h 45 min Bit rate : 89 b/s Count of elements : 2210 Stream size : 69.1 KiB (0%) Language : English Default : No Forced : No
June 10, 2019
The Hummingbird Project 2019 HDRip XviD AC3-EVO
Video and audio quality: 5/5 | Source: Official web stream

Submitted by: Mojib | Trust Rank level: Legend Member
Format: Torrent | Site: Torrentleech
iTunes rip. Available in several different resolutions and formats.

Videos Add media

The Hummingbird Project Trailer #1 (2019) | Movieclips Trailers
The Hummingbird Project Trailer #1 (2019) | Moviec...