The Humans

The Humans

Hot
MojibMojib   October 05, 2019  
Add to list
The Humans

Movie info

Title
Confirmed and upcoming movie titles only! Search before adding to avoid dupes.
The Humans
Year
The year the movie is set to be released.
2021
Director
Stephen Karam
Genre
Pick one or multiple movie genres.
Cinema release
First cinema release date in any country.
November 24, 2021
Description
The Humans, a critically acclaimed play by Stephen Karam, is getting a silver-screen adaptation and it is going to be Karam’s movie debut as a director. He previously wrote the scripts for the movie versions of The Seagull and Speech & Debate.

On paper, The Humans doesn’t sound like much. The story revolves around Thanksgiving where a family gathers in the new apartment. But there is so much more to it than a simple synopsis can reveal. The Humans was a breakaway hit that won the Tony Award for Best Play in 2016. The film stars Richard Jenkins, Jayne Houdyshell, Amy Schumer, Beanie Feldstein, Steven Yeun, and June Squibb.
Where you watch

Where you watch Email alert

Yes, it is available and reported below. Use the alert button to get notified when higher quality versions are available.

Download and stream reports

Is there a The Humans torrent? Yes. Reports are available below.
When will The Humans be available on digital platforms like iTunes, Amazon or Apple+? As of now, there's no release date announced. This includes iTunes, Amazon, Blu-Ray and DVD.

January 06, 2022
The.Humans.2021.1080p.WEB.H264-NAISU
Video and audio quality: 5/5 | Source: Official web stream

Submitted by: Mr. Meeseeks | Trust Rank level: Supreme Member
Format: Torrent | Site: RARBG
Video ID : 1 Format : AVC Format/Info : Advanced Video Codec Format profile : High@L4 Format settings : CABAC / 4 Ref Frames Format settings, CABAC : Yes Format settings, Reference frames : 4 frames Codec ID : V_MPEG4/ISO/AVC Duration : 1 h 46 min Bit rate mode : Constant Bit rate : 6 397 kb/s Nominal bit rate : 10 000 kb/s Width : 1 920 pixels Height : 1 080 pixels Display aspect ratio : 16:9 Frame rate mode : Constant Frame rate : 23.976 (24000/1001) FPS Color space : YUV Chroma subsampling : 4:2:0 Bit depth : 8 bits Scan type : Progressive Bits/(Pixel*Frame) : 0.129 Stream size : 4.76 GiB (89%) Default : Yes Forced : No Color range : Limited Color primaries : BT.709 Transfer characteristics : BT.709 Matrix coefficients : BT.709 Audio ID : 2 Format : E-AC-3 Format/Info : Enhanced AC-3 Commercial name : Dolby Digital Plus Codec ID : A_EAC3 Duration : 1 h 46 min Bit rate mode : Constant Bit rate : 640 kb/s Channel(s) : 6 channels Channel layout : L R C LFE Ls Rs Sampling rate : 48.0 kHz Frame rate : 31.250 FPS (1536 SPF) Compression mode : Lossy Delay relative to video : 4 ms Stream size : 488 MiB (9%) Language : English Service kind : Complete Main Default : Yes Forced : No Text ID : 3 Format : UTF-8 Codec ID : S_TEXT/UTF8 Codec ID/Info : UTF-8 Plain Text Title : English Language : English Default : No Forced : No

Videos Add media

The Humans | Official Trailer HD | A24
The Humans | Official Trailer HD | A24