The Hitman's Bodyguard

The Hitman's Bodyguard

Hot
PutterPlacePutterPlace   August 27, 2017  
News (0)
Add to list
The Hitman's Bodyguard

Movie info

TITLE
Confirmed and upcoming movie titles only! Search before adding to avoid dupes.
YEAR
The year the movie is set to be released.
2017
GENRE
Pick one or multiple movie genres.
CINEMA
First cinema release date in any country.
August 18, 2017
DESCRIPTION
The best bodyguard in the world gets a hitman as his new client. Now they're forced set aside their differences, when he's required to testify in court, in order to get to his trial in time.
WHERE YOU WATCH

Where you watch Email alert

The movie is online and reported below, Use the alert button to get notified when higher quality versions are available.

Reports

April 07, 2018
The.Hitmans.Bodyguard.2017.1080p.BluRay.REMUX.AVC.DTS-HD.MA.TrueHD.7.1.Atmos-FGT
Video and audio quality: 5/5 | Source: BluRay

Submitted by: Mr. Meeseeks | Trust Rank level: Legend Member
Format: Torrent | Site: RARBG
Video ID : 1 Format : AVC Format/Info : Advanced Video Codec Format profile : [email protected] Format settings : CABAC / 4 Ref Frames Format settings, CABAC : Yes Format settings, ReFrames : 4 frames Codec ID : V_MPEG4/ISO/AVC Duration : 1 h 58 min Bit rate mode : Variable Maximum bit rate : 37.0 Mb/s Width : 1 920 pixels Height : 1 080 pixels Display aspect ratio : 16:9 Frame rate mode : Constant Frame rate : 23.976 (24000/1001) FPS Color space : YUV Chroma subsampling : 4:2:0 Bit depth : 8 bits Scan type : Progressive Title : The.Hitmans.Bodyguard.2017.1080p.BluRay.REMUX.AVC.DTS-HD.MA.TrueHD.7.1.Atmos-FGT Language : English Default : No Forced : No Audio #1 ID : 2 Format : TrueHD Format profile : TrueHD+Atmos / TrueHD Codec ID : A_TRUEHD Bit rate mode : Variable Maximum bit rate : 7 704 kb/s Channel(s) : Object Based / 8 channels Channel positions : Object Based / Front: L C R, Side: L R, Back: L R, LFE Sampling rate : / 48.0 kHz Frame rate : 1 200.000 FPS (40 SPF) Compression mode : Lossless Title : The.Hitmans.Bodyguard.2017.1080p.BluRay.REMUX.AVC.DTS-HD.MA.TrueHD.7.1.Atmos-FGT Language : English Default : Yes Forced : No Audio #2 ID : 3 Format : DTS Format/Info : Digital Theater Systems Format profile : MA / Core Codec ID : A_DTS Duration : 1 h 58 min Bit rate mode : Variable / Constant Bit rate : Unknown / 1 509 kb/s Channel(s) : 8 channels / 6 channels Channel positions : Front: L C R, Side: L R, Back: L R, LFE / Front: L C R, Side: L R, LFE Sampling rate : 48.0 kHz Frame rate : 93.750 FPS (512 SPF) Bit depth : 24 bits Compression mode : Lossless / Lossy Title : The.Hitmans.Bodyguard.2017.1080p.BluRay.REMUX.AVC.DTS-HD.MA.TrueHD.7.1.Atmos-FGT Language : English Default : No Forced : No Audio #3 ID : 4 Format : AC-3 Format/Info : Audio Coding 3 Codec ID : A_AC3 Duration : 1 h 58 min Bit rate mode : Constant Bit rate : 640 kb/s Channel(s) : 6 channels Channel positions : Front: L C R, Side: L R, LFE Sampling rate : 48.0 kHz Frame rate : 31.250 FPS (1536 SPF) Bit depth : 16 bits Compression mode : Lossy Stream size : 541 MiB (1%) Title : The.Hitmans.Bodyguard.2017.1080p.BluRay.REMUX.AVC.DTS-HD.MA.TrueHD.7.1.Atmos-FGT Language : English Service kind : Complete Main Default : No Forced : No Audio #4 ID : 5 Format : AC-3 Format/Info : Audio Coding 3 Codec ID : A_AC3 Duration : 1 h 58 min Bit rate mode : Constant Bit rate : 224 kb/s Channel(s) : 2 channels Channel positions : Front: L R Sampling rate : 48.0 kHz Frame rate : 31.250 FPS (1536 SPF) Bit depth : 16 bits Compression mode : Lossy Stream size : 190 MiB (1%) Title : The.Hitmans.Bodyguard.2017.1080p.BluRay.REMUX.AVC.DTS-HD.MA.TrueHD.7.1.Atmos-FGT Language : English Service kind : Complete Main Default : No Forced : No Text #1 ID : 6 Format : PGS Muxing mode : zlib Codec ID : S_HDMV/PGS Codec ID/Info : Picture based subtitle format used on BDs/HD-DVDs Title : English-PGS Language : English Default : Yes Forced : No Text #2 ID : 7 Format : PGS Muxing mode : zlib Codec ID : S_HDMV/PGS Codec ID/Info : Picture based subtitle format used on BDs/HD-DVDs Title : Spanish-PGS Language : Spanish Default : No Forced : No
August 27, 2017
The.Hitmans.Bodyguard.2017.1080p.HDRip.X264.AC3-EVO
Video and audio quality: 4/5 | Source: Foreign web stream

Submitted by: Mojib | Trust Rank level: Hero member
Format: Torrent | Site: Torrentleech
SOURCE: HB - Thank you, VITO! :) ViDEO: 4900 Kbps ([email protected]) RESOLUTiON: 1920x800 RUNTiME: 1h 57m 43s SUBTiTLES: English for the foreign parts + English (Full) AUDiO: 384 Kbps AC3 5.1 LANGUAGE: ENGLiSH

Videos Add media

The Hitman's Bodyguard Red Band Trailer #1 (2017) Ryan Reynolds, Samuel L. Jackson Action Movie HD
The Hitman's Bodyguard Red Band Trailer #1 (2017) ...

Movie News

There are no member news items for this movie.
To write a comment please register or