The Head Hunter

The Head Hunter

Hot
Mr. MeeseeksMr. Meeseeks   March 25, 2019  
Add to list
The Head Hunter

Movie info

TITLE
Confirmed and upcoming movie titles only! Search before adding to avoid dupes.
The Head Hunter
YEAR
The year the movie is set to be released.
2019
GENRE
Pick one or multiple movie genres.
CINEMA
First cinema release date in any country.
April 05, 2019
DESCRIPTION
Starring Christopher Rygh as a bounty hunter who sets out to behead the killer of his daughter.
WHERE YOU WATCH

Where you watch Email alert

The movie is online and reported below, Use the alert button to get notified when higher quality versions are available.

Reports

Is The Head Hunter available online? Yes. Reports of pirated torrents and streams are available below.
When will The Head Hunter be available on digital platforms like iTunes or Amazon? As of now, there's no release data announced. This includes iTunes, Amazon, Blu-Ray and DVD.

June 13, 2019
The.Head.Hunter.2018.1080p.BluRay.x264.DTS-FGT
Video and audio quality: 5/5 | Source: BluRay

Submitted by: Mr. Meeseeks | Trust Rank level: Supreme Member
Format: Torrent | Site: RARBG
Video ID : 1 Format : AVC Format/Info : Advanced Video Codec Format profile : [email protected] Format settings : CABAC / 4 Ref Frames Format settings, CABAC : Yes Format settings, ReFrames : 4 frames Codec ID : V_MPEG4/ISO/AVC Duration : 1 h 12 min Bit rate : 11.5 Mb/s Width : 1 920 pixels Height : 1 080 pixels Display aspect ratio : 16:9 Frame rate mode : Constant Frame rate : 23.976 (24000/1001) FPS Color space : YUV Chroma subsampling : 4:2:0 Bit depth : 8 bits Scan type : Progressive Bits/(Pixel*Frame) : 0.231 Stream size : 5.79 GiB (88%) Title : The.Head.Hunter.2018.1080p.BluRay.x264.DTS-FGT Writing library : x264 core 148 r2795M aaa9aa8 Encoding settings : cabac=1 / ref=4 / deblock=1:-2:-2 / analyse=0x3:0x113 / me=umh / subme=9 / psy=1 / psy_rd=1.00:0.15 / mixed_ref=1 / me_range=16 / chroma_me=1 / trellis=2 / 8x8dct=1 / cqm=0 / deadzone=21,11 / fast_pskip=1 / chroma_qp_offset=-3 / threads=24 / lookahead_threads=3 / sliced_threads=0 / nr=0 / decimate=1 / interlaced=0 / bluray_compat=0 / constrained_intra=0 / bframes=3 / b_pyramid=2 / b_adapt=1 / b_bias=0 / direct=3 / weightb=1 / open_gop=0 / weightp=2 / keyint=250 / keyint_min=25 / scenecut=40 / intra_refresh=0 / rc_lookahead=50 / rc=2pass / mbtree=1 / bitrate=11500 / ratetol=1.0 / qcomp=0.60 / qpmin=0 / qpmax=69 / qpstep=4 / cplxblur=20.0 / qblur=0.5 / vbv_maxrate=31250 / vbv_bufsize=31250 / nal_hrd=none / filler=0 / ip_ratio=1.40 / aq=1:1.00 Language : English Default : Yes Forced : No Audio ID : 2 Format : DTS Format/Info : Digital Theater Systems Codec ID : A_DTS Duration : 1 h 12 min Bit rate mode : Constant Bit rate : 1 509 kb/s Channel(s) : 6 channels Channel layout : C L R Ls Rs LFE Sampling rate : 48.0 kHz Frame rate : 93.750 FPS (512 SPF) Bit depth : 16 bits Compression mode : Lossy Stream size : 782 MiB (12%) Title : The.Head.Hunter.2018.1080p.BluRay.x264.DTS-FGT Language : English Default : No Forced : No Menu 00:00:00.000 : en:Chapter 01 00:05:32.498 : en:Chapter 02 00:12:25.327 : en:Chapter 03 00:18:25.395 : en:Chapter 04 00:25:51.758 : en:Chapter 05 00:30:01.549 : en:Chapter 06 00:36:04.203 : en:Chapter 07 00:42:41.141 : en:Chapter 08 00:49:04.733 : en:Chapter 09 00:53:28.371 : en:Chapter 10 01:01:16.673 : en:Chapter 11 01:08:16.300 : en:Chapter 12
April 05, 2019
The.Head.Hunter.2019.720p.HDRip.800MB.x264-GalaxyRG
Video and audio quality: 5/5 | Source: Official web stream

Submitted by: Mr. Meeseeks | Trust Rank level: Supreme Member
Format: Torrent | Site: 1337x
Container = Matroska (mkv) Duration = 01:11:57.209 Filesize = 796 MiB Overall bitrate = 1 547 kb/s ViDEO Codec info = AVC [email protected] | V_MPEG4/ISO/AVC Resolution = 1280x720 Display AR = 1.778 | 16:9 Bitrate = Framerate = VFR Color space = YUV Chroma subsampling = 4:2:0 Encoder = x264 - core 148 r2748 97eaef2 AUDiO Codec info = AAC LC | A_AAC Channels = 2 Bitrate = Samplerate = 48.0 kHz Language = English

Videos Add media

THE HEAD HUNTER Official Trailer (2019) Horror Movie HD
THE HEAD HUNTER Official Trailer (2019) Horror Mov...