The Haunting of Sharon Tate

The Haunting of Sharon Tate

Mr. MeeseeksMr. Meeseeks   February 18, 2019  
News (0)
Add to list
The Haunting of Sharon Tate

Movie info

TITLE
Confirmed and upcoming movie titles only! Search before adding to avoid dupes.
YEAR
The year the movie is set to be released.
2019
GENRE
Pick one or multiple movie genres.
CINEMA
First cinema release date in any country.
April 05, 2019
DESCRIPTION
Starring Hilary Duff, Jonathan Bennett, Lydia Hearst, Pawel Szajda, and Ryan Cargill.
WHERE YOU WATCH

Where you watch Email alert

The movie is online and reported below, Use the alert button to get notified when higher quality versions are available.

Reports

May 10, 2019
The.Haunting.of.Sharon.Tate.2019.1080p.BluRay.REMUX.AVC.DTS-HD.MA.5.1-FGT
Video and audio quality: 5/5 | Source: BluRay

Submitted by: Mr. Meeseeks | Trust Rank level: Supreme Member
Format: Torrent | Site: RARBG
Video ID : 1 Format : AVC Format/Info : Advanced Video Codec Format profile : [email protected] Format settings : CABAC / 4 Ref Frames Format settings, CABAC : Yes Format settings, ReFrames : 4 frames Codec ID : V_MPEG4/ISO/AVC Duration : 1 h 29 min Bit rate mode : Variable Bit rate : 20.0 Mb/s Maximum bit rate : 35.0 Mb/s Width : 1 920 pixels Height : 1 080 pixels Display aspect ratio : 16:9 Frame rate mode : Constant Frame rate : 23.976 (24000/1001) FPS Color space : YUV Chroma subsampling : 4:2:0 Bit depth : 8 bits Scan type : Progressive Bits/(Pixel*Frame) : 0.402 Stream size : 12.5 GiB (91%) Title : The.Haunting.of.Sharon.Tate.2019.1080p.BluRay.REMUX.AVC.DTS-HD.MA.5.1-FGT Language : English Default : No Forced : No Color range : Limited Color primaries : BT.709 Transfer characteristics : BT.709 Matrix coefficients : BT.709 Audio ID : 2 Format : DTS XLL Format/Info : Digital Theater Systems Commercial name : DTS-HD Master Audio Codec ID : A_DTS Duration : 1 h 29 min Bit rate mode : Variable Bit rate : 1 983 kb/s Channel(s) : 6 channels Channel layout : C L R Ls Rs LFE Sampling rate : 48.0 kHz Frame rate : 93.750 FPS (512 SPF) Bit depth : 16 bits Compression mode : Lossless Stream size : 1.24 GiB (9%) Title : The.Haunting.of.Sharon.Tate.2019.1080p.BluRay.REMUX.AVC.DTS-HD.MA.5.1-FGT Language : English Default : Yes Forced : No
April 05, 2019
The.Haunting.of.Sharon.Tate.2019.HDRip.AC3.x264-CMRG
Video and audio quality: 5/5 | Source: Official web stream

Submitted by: Mr. Meeseeks | Trust Rank level: Supreme Member
Format: Torrent | Site: 1337x
Container = Matroska (mkv) Duration = 01:30:33.216 Filesize = 1 GiB Overall bitrate = 2 087 kb/s ViDEO Codec info = AVC [email protected] | V_MPEG4/ISO/AVC Resolution = 720x304 Display AR = 2.368 | 2.35:1 Bitrate = 1 729 kb/s Framerate = CFR 23.976 Color space = YUV Chroma subsampling = 4:2:0 Encoder = x264 - core 152 r2851 ba24899 AUDiO Codec info = AC-3 | A_AC3 Channels = 6 Bitrate = CBR 384 kb/s Samplerate = 48.0 kHz Language = English

Videos Add media

The Haunting of Sharon Tate Official Trailer (2019) - Hilary Duff
The Haunting of Sharon Tate Official Trailer (2019...

Movie News

There are no member news items for this movie.
To write a comment please register or