The Good Liar

The Good Liar

Hot
Mr. MeeseeksMr. Meeseeks   June 27, 2019  
Add to list
The Good Liar

Movie info

Title
Confirmed and upcoming movie titles only! Search before adding to avoid dupes.
The Good Liar
Year
The year the movie is set to be released.
2019
Director
Bill Condon
Genre
Pick one or multiple movie genres.
Cinema release
First cinema release date in any country.
November 15, 2019
Digital release
Official digital release date on services such as iTunes, Amazon, Netflix. It's the first known release date, without any country restriction. So if it's out on iTunes Russia first, this would be the digital release date.
January 21, 2020
Description
Starring Helen Mirren, Ian McKellen, Russell Tovey, Mark Lewis Jones, Jim Carter, Jóhannes Haukur Jóhannesson, and Celine Buckens.
Where you watch

Where you watch Email alert

Yes, it is available and reported below. Use the alert button to get notified when higher quality versions are available.

Download and stream reports

Is there a The Good Liar torrent? Yes. Reports are available below.
When will The Good Liar be available on VOD? It's set for a January 21, 2020 release.

February 14, 2020
The.Good.Liar.2019.1080p.BluRay.x264.DTS-HD.MA.5.1-FGT
Video and audio quality: 5/5 | Source: BluRay

Submitted by: Mr. Meeseeks | Trust Rank level: Supreme Member
Format: Torrent | Site: RARBG
Video ID : 1 Format : AVC Format/Info : Advanced Video Codec Format profile : High@L4.1 Format settings : CABAC / 5 Ref Frames Format settings, CABAC : Yes Format settings, Reference frames : 5 frames Codec ID : V_MPEG4/ISO/AVC Duration : 1 h 49 min Bit rate : 8 470 kb/s Width : 1 920 pixels Height : 808 pixels Display aspect ratio : 2.40:1 Frame rate mode : Constant Frame rate : 23.976 (24000/1001) FPS Color space : YUV Chroma subsampling : 4:2:0 Bit depth : 8 bits Scan type : Progressive Bits/(Pixel*Frame) : 0.228 Stream size : 6.48 GiB (79%) Title : The.Good.Liar.2019.1080p.BluRay.x264.DTS-HD.MA.5.1-FGT Writing library : x264 core 157 r2969 d4099dd Encoding settings : cabac=1 / ref=5 / deblock=1:0:0 / analyse=0x3:0x113 / me=umh / subme=8 / psy=1 / psy_rd=1.00:0.00 / mixed_ref=1 / me_range=16 / chroma_me=1 / trellis=1 / 8x8dct=1 / cqm=0 / deadzone=21,11 / fast_pskip=1 / chroma_qp_offset=-2 / threads=16 / lookahead_threads=2 / sliced_threads=0 / nr=0 / decimate=1 / interlaced=0 / bluray_compat=0 / constrained_intra=0 / bframes=3 / b_pyramid=2 / b_adapt=2 / b_bias=0 / direct=3 / weightb=1 / open_gop=0 / weightp=2 / keyint=240 / keyint_min=23 / scenecut=40 / intra_refresh=0 / rc_lookahead=50 / rc=2pass / mbtree=1 / bitrate=8470 / ratetol=1.0 / qcomp=0.60 / qpmin=0 / qpmax=69 / qpstep=4 / cplxblur=20.0 / qblur=0.5 / ip_ratio=1.40 / aq=1:1.00 Default : Yes Forced : No Audio ID : 2 Format : DTS XLL Format/Info : Digital Theater Systems Commercial name : DTS-HD Master Audio Codec ID : A_DTS Duration : 1 h 49 min Bit rate mode : Variable Bit rate : 2 141 kb/s Channel(s) : 6 channels Channel layout : C L R Ls Rs LFE Sampling rate : 48.0 kHz Frame rate : 93.750 FPS (512 SPF) Bit depth : 16 bits Compression mode : Lossless Stream size : 1.64 GiB (20%) Title : The.Good.Liar.2019.1080p.BluRay.x264.DTS-HD.MA.5.1-FGT Language : English Default : Yes Forced : No Text #1 ID : 3 Format : UTF-8 Codec ID : S_TEXT/UTF8 Codec ID/Info : UTF-8 Plain Text Duration : 1 h 41 min Bit rate : 55 b/s Count of elements : 1471 Stream size : 41.2 KiB (0%) Title : English-SRT Language : English Default : Yes Forced : No Text #2 ID : 4 Format : PGS Muxing mode : zlib Codec ID : S_HDMV/PGS Codec ID/Info : Picture based subtitle format used on BDs/HD-DVDs Duration : 1 h 43 min Bit rate : 36.5 kb/s Count of elements : 3088 Stream size : 27.1 MiB (0%) Title : English-PGS Language : English Default : No Forced : No Text #3 ID : 5 Format : PGS Muxing mode : zlib Codec ID : S_HDMV/PGS Codec ID/Info : Picture based subtitle format used on BDs/HD-DVDs Duration : 1 h 48 min Bit rate : 28.0 kb/s Count of elements : 2870 Stream size : 21.7 MiB (0%) Title : French-PGS Language : French Default : No Forced : No Text #4 ID : 6 Format : PGS Muxing mode : zlib Codec ID : S_HDMV/PGS Codec ID/Info : Picture based subtitle format used on BDs/HD-DVDs Duration : 1 h 48 min Bit rate : 31.5 kb/s Count of elements : 2794 Stream size : 24.5 MiB (0%) Title : Spanish-PGS Language : Spanish Default : No Forced : No Text #5 ID : 7 Format : PGS Muxing mode : zlib Codec ID : S_HDMV/PGS Codec ID/Info : Picture based subtitle format used on BDs/HD-DVDs Duration : 1 h 48 min Bit rate : 31.0 kb/s Count of elements : 2796 Stream size : 24.1 MiB (0%) Title : Portuguese-PGS Language : Portuguese Default : No Forced : No
January 21, 2020
The.Good.Liar.2019.1080p.WEB-DL.DD5.1.H264-FGT
Video and audio quality: 5/5 | Source: Official web stream

Submitted by: armiestice | Trust Rank level: Senior Member
Format: Torrent | Site: RARBG

Videos Add media

THE GOOD LIAR - Official Trailer
THE GOOD LIAR - Official Trailer