The God Committee

The God Committee

Mr. MeeseeksMr. Meeseeks   June 05, 2021  
Add to list
The God Committee

Movie info

Title
Confirmed and upcoming movie titles only! Search before adding to avoid dupes.
The God Committee
Year
The year the movie is set to be released.
2021
Director
Austin Stark
Genre
Pick one or multiple movie genres.
Digital release
Official digital release date on services such as iTunes, Amazon, Netflix. It's the first known release date, without any country restriction. So if it's out on iTunes Russia first, this would be the digital release date.
July 02, 2021
Description
Starring Kelsey Grammer, Julia Stiles, Janeane Garofalo, Peter Y. Kim, Caroline Lagerfelt, Elizabeth Masucci, Dan Hedaya, and Colman Domingo.
Where you watch

Where you watch Email alert

Yes, it is available and reported below. Use the alert button to get notified when higher quality versions are available.

Download and stream reports

Is there a The God Committee torrent? Yes. Reports are available below.
When will The God Committee be available on VOD? It's set for a July 02, 2021 release.

July 04, 2021
The.God.Committee.2021.1080p.WEB.H264-EMPATHY
Video and audio quality: 5/5 | Source: Official web stream

Submitted by: Mr. Meeseeks | Trust Rank level: Supreme Member
Format: Torrent | Site: RARBG
Video ID : 1 Format : AVC Format/Info : Advanced Video Codec Format profile : High@L4 Format settings : CABAC / 5 Ref Frames Format settings, CABAC : Yes Format settings, Reference frames : 5 frames Codec ID : V_MPEG4/ISO/AVC Duration : 1 h 38 min Bit rate : 6 751 kb/s Width : 1 912 pixels Height : 796 pixels Display aspect ratio : 2.40:1 Frame rate mode : Constant Frame rate : 23.976 (24000/1001) FPS Color space : YUV Chroma subsampling : 4:2:0 Bit depth : 8 bits Scan type : Progressive Bits/(Pixel*Frame) : 0.185 Stream size : 4.65 GiB (95%) Default : Yes Forced : No Color range : Limited Color primaries : BT.709 Transfer characteristics : BT.709 Matrix coefficients : BT.709 Audio ID : 2 Format : AC-3 Format/Info : Audio Coding 3 Commercial name : Dolby Digital Codec ID : A_AC3 Duration : 1 h 38 min Bit rate mode : Constant Bit rate : 384 kb/s Channel(s) : 6 channels Channel layout : L R C LFE Ls Rs Sampling rate : 48.0 kHz Frame rate : 31.250 FPS (1536 SPF) Compression mode : Lossy Stream size : 271 MiB (5%) Title : English Language : English Service kind : Complete Main Default : No Forced : No Text #1 ID : 3 Format : UTF-8 Codec ID : S_TEXT/UTF8 Codec ID/Info : UTF-8 Plain Text Duration : 43 min 3 s Bit rate : 80 b/s Count of elements : 813 Stream size : 25.4 KiB (0%) Title : English SDH Language : English Default : No Forced : No Text #2 ID : 4 Format : UTF-8 Codec ID : S_TEXT/UTF8 Codec ID/Info : UTF-8 Plain Text Duration : 42 min 20 s Bit rate : 72 b/s Count of elements : 643 Stream size : 22.4 KiB (0%) Title : English Language : English Default : No Forced : No

Videos Add media

The God Committee | Official Trailer (HD) | Vertical Entertainment
The God Committee | Official Trailer (HD) | Vertic...