The Gentlemen

The Gentlemen

Hot
Mr. MeeseeksMr. Meeseeks   October 02, 2019  
Add to list
The Gentlemen

Movie info

Title
Confirmed and upcoming movie titles only! Search before adding to avoid dupes.
The Gentlemen
Year
The year the movie is set to be released.
2020
Director
Genre
Pick one or multiple movie genres.
Cinema release
First cinema release date in any country.
January 24, 2020
Digital release
Official digital release date on services such as iTunes, Amazon, Netflix. It's the first known release date, without any country restriction. So if it's out on iTunes Russia first, this would be the digital release date.
February 24, 2020
Description
The Gentlemen is being advertised as a return to form for Guy Ritchie, especially his raucous, electric auteur behind the movie Lock, Stock, and Two Smoking Barrels and Snatch. The Gentlemen tells the story of Mickey Pearson (Matthew McConaughey), an American drug lord who has built the largest cannabis empire in the United Kingdom. But now he is ready to retire and sell his weed estate to Matthew Berger (Jeremy Strong), an American businessman who wants to legalize the business. However, the task won’t be easy as many vengeful newspapermen and rival gangsters descend on Mickey to vie for power.

There are several unexpected twists in the movie – with some gory sequences. The narrative has a perfect harmonious and paced flow, in which an amazing cast dances with one another indulging in unforeseen table turnings and twists. Because of its great male protagonist as well as brilliant plot, The Gentlemen seems like a strong contender for a few Bafta nominations.
Where you watch

Where you watch Email alert

Yes. The movie is online and reported below, Use the alert button to get notified when higher quality versions are available.

Download and stream reports

Can I download or stream The Gentlemen? Yes. Reports of pirated torrents and streams are available below.
When will The Gentlemen be available on digital platforms like iTunes or Amazon? It's set for a February 24, 2020 release. This likely includes iTunes and Amazon unless it is an exclusive Netflix, or similar, release. Physical versions on Blu-Ray or DVD will likely follow.

April 13, 2020
The.Gentlemen.2019.1080p.BluRay.x264.DTS-HD.MA.7.1-FGT
Video and audio quality: 5/5 | Source: BluRay

Submitted by: Mr. Meeseeks | Trust Rank level: Supreme Member
Format: Torrent | Site: RARBG
Video ID : 1 Format : AVC Format/Info : Advanced Video Codec Format profile : High@L4.1 Format settings : CABAC / 5 Ref Frames Format settings, CABAC : Yes Format settings, Reference frames : 5 frames Codec ID : V_MPEG4/ISO/AVC Duration : 1 h 53 min Bit rate : 9 360 kb/s Width : 1 920 pixels Height : 808 pixels Display aspect ratio : 2.40:1 Frame rate mode : Constant Frame rate : 23.976 (24000/1001) FPS Color space : YUV Chroma subsampling : 4:2:0 Bit depth : 8 bits Scan type : Progressive Bits/(Pixel*Frame) : 0.252 Stream size : 7.43 GiB (70%) Title : The.Gentlemen.2019.1080p.BluRay.x264.DTS-HD.MA.7.1-FGT Writing library : x264 core 159 r2991 1771b55 Encoding settings : cabac=1 / ref=5 / deblock=1:-3:-3 / analyse=0x3:0x133 / me=umh / subme=8 / psy=1 / psy_rd=1.00:0.00 / mixed_ref=1 / me_range=32 / chroma_me=1 / trellis=2 / 8x8dct=1 / cqm=0 / deadzone=21,11 / fast_pskip=0 / chroma_qp_offset=-2 / threads=24 / lookahead_threads=4 / sliced_threads=0 / nr=0 / decimate=1 / interlaced=0 / bluray_compat=0 / constrained_intra=0 / bframes=3 / b_pyramid=2 / b_adapt=2 / b_bias=0 / direct=3 / weightb=1 / open_gop=0 / weightp=2 / keyint=230 / keyint_min=23 / scenecut=40 / intra_refresh=0 / rc_lookahead=60 / rc=2pass / mbtree=1 / bitrate=9360 / ratetol=1.0 / qcomp=0.60 / qpmin=0 / qpmax=69 / qpstep=4 / cplxblur=20.0 / qblur=0.5 / ip_ratio=1.40 / aq=1:1.00 Language : English Default : Yes Forced : No Color range : Limited Matrix coefficients : BT.709 Audio ID : 2 Format : DTS XLL Format/Info : Digital Theater Systems Commercial name : DTS-HD Master Audio Codec ID : A_DTS Duration : 1 h 53 min Bit rate mode : Variable Bit rate : 3 970 kb/s Channel(s) : 8 channels Channel layout : C L R LFE Lb Rb Lss Rss Sampling rate : 48.0 kHz Frame rate : 93.750 FPS (512 SPF) Bit depth : 24 bits Compression mode : Lossless Stream size : 3.15 GiB (30%) Title : The.Gentlemen.2019.1080p.BluRay.x264.DTS-HD.MA.7.1-FGT Language : English Default : Yes Forced : No Text #1 ID : 3 Format : UTF-8 Codec ID : S_TEXT/UTF8 Codec ID/Info : UTF-8 Plain Text Duration : 1 h 50 min Bit rate : 92 b/s Count of elements : 1958 Stream size : 75.0 KiB (0%) Title : English-SRT Language : English Default : Yes Forced : No Text #2 ID : 4 Format : PGS Muxing mode : zlib Codec ID : S_HDMV/PGS Codec ID/Info : Picture based subtitle format used on BDs/HD-DVDs Duration : 1 h 50 min Bit rate : 65.8 kb/s Count of elements : 4248 Stream size : 52.2 MiB (0%) Title : English-SDH-PGS Language : English Default : No Forced : No Text #3 ID : 5 Format : PGS Muxing mode : zlib Codec ID : S_HDMV/PGS Codec ID/Info : Picture based subtitle format used on BDs/HD-DVDs Duration : 1 h 52 min Bit rate : 51.4 kb/s Count of elements : 3524 Stream size : 41.4 MiB (0%) Title : Spanish-PGS Language : Spanish Default : No Forced : No
March 24, 2020
The.Gentlemen.2020.1080p.WEB-DL.H264.AC3-EVO
Video and audio quality: 5/5 | Source: Foreign web stream

Submitted by: adam7 | Trust Rank level: Newbie
Format: Torrent | Site: ddlvalley
February 14, 2020
The.Gentlemen.2020.720p.HDTS.900mb.c1nem4.x264-BONSAI
Video and audio quality: 2/5 | Source: Camera with line audio

Submitted by: Mr. Meeseeks | Trust Rank level: Supreme Member
Format: Torrent | Site: TorrentGalaxy
Container = Matroska (mkv) Duration = 01:47:21.621 Filesize = 897 MiB Overall bitrate = 1 168 kb/s Video Codec info = AVC High@L3.1 | V_MPEG4/ISO/AVC Resolution = 1280x544 Display AR = 2.388 | 2.40:1 Bitrate = Framerate = VFR Color space = YUV Chroma subsampling = 4:2:0 Encoder = x264 - core 157 Audio Codec info = AAC | A_AAC-2 Channels = 2 Bitrate = Samplerate = 48.0 kHz Language = English
January 06, 2020
The.Gentlemen.2020.720p.HDCAM.900MB.getb8.x264-BONSAI[TGx]
Video and audio quality: 1/5 | Source: Camera

Submitted by: Costa | Trust Rank level: Hero member
Format: Torrent | Site: torrentgalaxy
Please be advised this upload has ads cut or watermarked into the video.

Videos Add media

The Gentlemen | Official Trailer
The Gentlemen | Official Trailer