The Gallows: Act II

The Gallows: Act II

Hot
Mr. MeeseeksMr. Meeseeks   January 14, 2018  
Add to list
The Gallows: Act II

Movie info

Title
Confirmed and upcoming movie titles only! Search before adding to avoid dupes.
The Gallows: Act II
Year
The year the movie is set to be released.
2019
Genre
Pick one or multiple movie genres.
Cinema release
First cinema release date in any country.
October 25, 2019
Description
Last year Blumhouse Productions secretly filmed a sequel to their 2015 found-footage horror movie “The Gallows”. Details have been gradually leaking, and we know the cast will feature Ema Horvath, Brittany Falardeau, Anthony Jensen, Chris Milligan, Dennis Hurley, Jono Cota, and Erika Miranda.
Where you watch

Where you watch Email alert

Yes, it is available and reported below. Use the alert button to get notified when higher quality versions are available.

Download and stream reports

Is there a The Gallows: Act II torrent? Yes. Reports are available below.
When will The Gallows: Act II be available on digital platforms like iTunes, Amazon or Apple+? As of now, there's no release date announced. This includes iTunes, Amazon, Blu-Ray and DVD.

August 16, 2020
The.Gallows.Act.II.2019.1080p.BluRay.x264.DTS-HD.MA.5.1-FGT
Video and audio quality: 5/5 | Source: BluRay

Submitted by: Mr. Meeseeks | Trust Rank level: Supreme Member
Format: Torrent | Site: RARBG
Video ID : 1 Format : AVC Format/Info : Advanced Video Codec Format profile : High@L4.1 Format settings : CABAC / 5 Ref Frames Format settings, CABAC : Yes Format settings, Reference frames : 5 frames Codec ID : V_MPEG4/ISO/AVC Duration : 1 h 39 min Bit rate : 9 448 kb/s Width : 1 920 pixels Height : 808 pixels Display aspect ratio : 2.40:1 Frame rate mode : Constant Frame rate : 23.976 (24000/1001) FPS Color space : YUV Chroma subsampling : 4:2:0 Bit depth : 8 bits Scan type : Progressive Bits/(Pixel*Frame) : 0.254 Stream size : 6.59 GiB (74%) Title : The.Gallows.Act.II.2019.1080p.BluRay.x264.DTS-HD.MA.5.1-FGT Writing library : x264 core 158 r2988 7817004 Encoding settings : cabac=1 / ref=5 / deblock=1:-3:-3 / analyse=0x3:0x133 / me=umh / subme=8 / psy=1 / psy_rd=1.00:0.00 / mixed_ref=1 / me_range=16 / chroma_me=1 / trellis=1 / 8x8dct=1 / cqm=0 / deadzone=21,11 / fast_pskip=0 / chroma_qp_offset=-2 / threads=25 / lookahead_threads=4 / sliced_threads=0 / nr=0 / decimate=1 / interlaced=0 / bluray_compat=0 / constrained_intra=0 / bframes=3 / b_pyramid=2 / b_adapt=1 / b_bias=0 / direct=3 / weightb=1 / open_gop=0 / weightp=2 / keyint=250 / keyint_min=23 / scenecut=40 / intra_refresh=0 / rc_lookahead=50 / rc=2pass / mbtree=1 / bitrate=9448 / ratetol=1.0 / qcomp=0.60 / qpmin=0 / qpmax=69 / qpstep=4 / cplxblur=20.0 / qblur=0.5 / vbv_maxrate=62500 / vbv_bufsize=78125 / nal_hrd=none / filler=0 / ip_ratio=1.40 / aq=1:1.00 Default : Yes Forced : No Audio ID : 2 Format : DTS XLL Format/Info : Digital Theater Systems Commercial name : DTS-HD Master Audio Codec ID : A_DTS Duration : 1 h 39 min Bit rate mode : Variable Bit rate : 3 229 kb/s Channel(s) : 6 channels Channel layout : C L R Ls Rs LFE Sampling rate : 48.0 kHz Frame rate : 93.750 FPS (512 SPF) Bit depth : 24 bits Compression mode : Lossless Stream size : 2.25 GiB (25%) Title : The.Gallows.Act.II.2019.1080p.BluRay.x264.DTS-HD.MA.5.1-FGT Language : English Default : Yes Forced : No
October 11, 2019
The.Gallows.Act.II.2019.1080p.AMZN.WEBRip.DDP5.1.x264-NTG
Video and audio quality: 5/5 | Source: Official web stream

Submitted by: Ivana 🌿 | Trust Rank level: Supreme Member
Format: Torrent | Site: TorrentGalaxy
Duration: 1h 39min Resolution: 1920x816 Language: English

Videos Add media

THE GALLOWS ACT 2 Trailer (2019)
THE GALLOWS ACT 2 Trailer (2019)