The Escape of Prisoner 614

The Escape of Prisoner 614

Mr. MeeseeksMr. Meeseeks   April 03, 2018  
News (0)
Add to list
The Escape of Prisoner 614

Movie info

TITLE
Confirmed and upcoming movie titles only! Search before adding to avoid dupes.
YEAR
The year the movie is set to be released.
2018
DIRECTOR
GENRE
Pick one or multiple movie genres.
CINEMA
First cinema release date in any country.
April 27, 2018
DESCRIPTION
Two incompetent small-town sheriff’s deputies track down an escaped prisoner, but are soon convinced he’s been wrongfully convicted. The cast features Martin Starr, Jake McDorman, George Sample III, and Ron Perlman.
WHERE YOU WATCH

Where you watch Email alert

The movie is online and reported below, Use the alert button to get notified when higher quality versions are available.

Reports

June 18, 2018
The.Escape.of.Prisoner.614.2018.1080p.BluRay.x264.DTS-MT
Video and audio quality: 5/5 | Source: BluRay

Submitted by: Mr. Meeseeks | Trust Rank level: Legend Member
Format: Torrent | Site: RARBG
Video ID : 1 Format : AVC Format/Info : Advanced Video Codec Format profile : [email protected] Format settings : CABAC / 5 Ref Frames Format settings, CABAC : Yes Format settings, ReFrames : 5 frames Codec ID : V_MPEG4/ISO/AVC Duration : 1 h 37 min Bit rate : 12.4 Mb/s Width : 1 920 pixels Height : 804 pixels Display aspect ratio : 2.40:1 Frame rate mode : Constant Frame rate : 23.976 (24000/1001) FPS Color space : YUV Chroma subsampling : 4:2:0 Bit depth : 8 bits Scan type : Progressive Bits/(Pixel*Frame) : 0.335 Stream size : 8.42 GiB (89%) Title : The.Escape.of.Prisoner.614.2018.1080p.BluRay.x264.DTS-MT Language : English Default : Yes Forced : No Audio ID : 2 Format : DTS Format/Info : Digital Theater Systems Codec ID : A_DTS Duration : 1 h 37 min Bit rate mode : Constant Bit rate : 1 509 kb/s Channel(s) : 6 channels Channel positions : Front: L C R, Side: L R, LFE Sampling rate : 48.0 kHz Frame rate : 93.750 FPS (512 SPF) Bit depth : 24 bits Compression mode : Lossy Stream size : 1.03 GiB (11%) Title : The.Escape.of.Prisoner.614.2018.1080p.BluRay.x264.DTS-MT Language : English Default : Yes Forced : No
April 27, 2018
The Escape of Prisoner.614.2018.HDRip.XviD.AC3-EVO
Video and audio quality: 5/5 | Source: Official web stream

Submitted by: Mr. Meeseeks | Trust Rank level: Legend Member
Format: Torrent | Site: TorrentingMe
ViDEO: 1600 Kbps -2 Passes RESOLUTiON: 720x304 RUNTiME: 1h 36m 43s SUBTiTLES: No. AUDiO: 384 Kbps AC3 5.1 LANGUAGE: ENGLiSH

Videos Add media

THE ESCAPE OF PRISONER 614 Official Trailer (2018) Ron Perlman, Martin Starr Movie HD
THE ESCAPE OF PRISONER 614 Official Trailer (2018)...

Movie News

There are no member news items for this movie.
To write a comment please register or