The Curse of La Llorona

The Curse of La Llorona

Hot
Mr. MeeseeksMr. Meeseeks   July 14, 2018  
News (0)
Add to list
The Curse of La Llorona

Movie info

TITLE
Confirmed and upcoming movie titles only! Search before adding to avoid dupes.
YEAR
The year the movie is set to be released.
2019
GENRE
Pick one or multiple movie genres.
CINEMA
First cinema release date in any country.
April 19, 2019
DESCRIPTION
Starring Linda Cardellini, Patricia Velasquez, Sean Patrick Thomas, and Raymond Cruz.
WHERE YOU WATCH

Where you watch Email alert

The movie is online and reported below, Use the alert button to get notified when higher quality versions are available.

Reports

May 27, 2019
The.Curse.of.La.Llorona.2019.1080p.KORSUB.HDRip.x264.AAC2.0-STUTTERSHIT
Video and audio quality: 4/5 | Source: Foreign web stream

Submitted by: Mr. Meeseeks | Trust Rank level: Supreme Member
Format: Torrent | Site: RARBG
Video ID : 1 Format : AVC Format/Info : Advanced Video Codec Format profile : [email protected] Format settings : CABAC / 4 Ref Frames Format settings, CABAC : Yes Format settings, ReFrames : 4 frames Codec ID : V_MPEG4/ISO/AVC Duration : 1 h 32 min Bit rate : 5 221 kb/s Width : 1 920 pixels Height : 800 pixels Display aspect ratio : 2.40:1 Frame rate mode : Constant Frame rate : 30.303 FPS Color space : YUV Chroma subsampling : 4:2:0 Bit depth : 8 bits Scan type : Progressive Bits/(Pixel*Frame) : 0.112 Stream size : 3.39 GiB (95%) Title : The.Curse.of.La.Llorona.2019.1080p.KORSUB.HDRip.x264.AAC2.0-STUTTERSHIT Default : Yes Forced : No Color range : Limited Color primaries : BT.709 Transfer characteristics : BT.709 Matrix coefficients : BT.709 Audio ID : 2 Format : AAC LC Format/Info : Advanced Audio Codec Low Complexity Codec ID : A_AAC-2 Duration : 1 h 32 min Bit rate : 256 kb/s Channel(s) : 2 channels Channel layout : L R Sampling rate : 48.0 kHz Frame rate : 46.875 FPS (1024 SPF) Compression mode : Lossy Stream size : 170 MiB (5%) Title : The.Curse.of.La.Llorona.2019.1080p.KORSUB.HDRip.x264.AAC2.0-STUTTERSHIT Language : English Default : Yes Forced : No
April 19, 2019
The.Curse.of.La.Llorona.2019.720p.HDCAM.900MB.1xbet.x264-BONSAI[TGx]
Video and audio quality: 1/5 | Source: Camera

Submitted by: Costa | Trust Rank level: Hero member
Format: Torrent | Site: torrentgalaxy
MEDIAINFO Container = Matroska (mkv) Duration = 01:27:06.133 Filesize = 896 MiB Overall bitrate = 1 439 kb/s Video Codec info = AVC [email protected] | V_MPEG4/ISO/AVC Resolution = 1280x544 Display AR = 2.388 | 2.40:1 Bitrate = Framerate = VFR Color space = YUV Chroma subsampling = 4:2:0 Encoder = x264 - core 148 r2748 97eaef2 Audio Codec info = AAC LC | A_AAC Channels = 2 Bitrate = Samplerate = 48.0 kHz Language = English

Videos Add media

The Curse of La Llorona - Teaser Trailer [HD]
The Curse of La Llorona - Teaser Trailer [HD]

Movie News

There are no member news items for this movie.
To write a comment please register or