The Commuter

The Commuter

Ramona FlowersRamona Flowers   September 12, 2017  
News (0)
Add to list
The Commuter

Movie info

TITLE
Confirmed and upcoming movie titles only! Search before adding to avoid dupes.
YEAR
The year the movie is set to be released.
2018
GENRE
Pick one or multiple movie genres.
CINEMA
First cinema release date in any country.
January 12, 2018
DESCRIPTION
The eighth motion picture from Spanish director Jaume Collet-Serra ('Orphan', 'The Shallows'), the mystery film, "The Commuter", will be out in January of 2018. It will be his fourth film starring Liam Neeson, and his second starring Vera Farmiga. It follows an insurance salesman Michael Woolrich (Neeson) whose typical commute home from work one day becomes the center of a criminal conspiracy with life-or-death stakes.
WHERE YOU WATCH

Where you watch Email alert

The movie is online and reported below, Use the alert button to get notified when higher quality versions are available.

Reports

April 06, 2018
The.Commuter.2018.1080p.BluRay.x264.DTS-HD.MA.7.1-FGT
Quality: 5/5 | Source: BluRay

Submitted by: Mr. Meeseeks | Trust Rank level: Legend Member
Format: Torrent | Site: RARBG
Video ID : 1 Format : AVC Format/Info : Advanced Video Codec Format profile : High@L4.1 Format settings : CABAC / 5 Ref Frames Format settings, CABAC : Yes Format settings, ReFrames : 5 frames Codec ID : V_MPEG4/ISO/AVC Duration : 1 h 44 min Bit rate : 9 992 kb/s Width : 1 920 pixels Height : 808 pixels Display aspect ratio : 2.40:1 Frame rate mode : Constant Frame rate : 23.976 FPS Color space : YUV Chroma subsampling : 4:2:0 Bit depth : 8 bits Scan type : Progressive Bits/(Pixel*Frame) : 0.269 Stream size : 7.32 GiB (71%) Audio ID : 2 Format : DTS Format/Info : Digital Theater Systems Format profile : MA / Core Codec ID : A_DTS Duration : 1 h 44 min Bit rate mode : Variable / Constant Bit rate : 4 093 kb/s / 1 509 kb/s Channel(s) : 8 channels / 6 channels Channel positions : Front: L C R, Side: L R, Back: L R, LFE / Front: L C R, Side: L R, LFE Sampling rate : 48.0 kHz Frame rate : 93.750 FPS (512 SPF) Bit depth : 24 bits Compression mode : Lossless / Lossy Stream size : 3.00 GiB (29%) Text ID : 3 Format : UTF-8 Codec ID : S_TEXT/UTF8 Codec ID/Info : UTF-8 Plain Text Duration : 1 h 37 min Bit rate : 70 b/s Count of elements : 1438 Stream size : 50.2 KiB (0%) Title : English-SRT Language : English Default : Yes Forced : No
March 28, 2018
The.Commuter.2018.DVDRip.XviD.AC3-EVO
Quality: 5/5 | Source: DVD

Submitted by: armiestice | Trust Rank level: Standard member
Format: Torrent | Site: 1337x
DVD Rip. Resolution 720x304
March 27, 2018
The Commuter.2018.HC.HDRip.XviD.AC3-EVO
Quality: 4/5 | Source: Foreign web stream

Submitted by: armiestice | Trust Rank level: Standard member
Format: Torrent | Site: Torrenting
HARCODED KOREAN SUBTITLES Resolution: 720x304
February 04, 2018
The Commuter 2018 HDCAM REPACK X264-DADDY
Quality: 1/5 | Source: Camera

Submitted by: Mojib | Trust Rank level: Hero member
Format: Torrent | Site: Scene
Audio sync issues fixed.
January 18, 2018
The Commuter 2018 ENG CAM X264
Quality: 1/5 | Source: Camera

Submitted by: Mr. Meeseeks | Trust Rank level: Legend Member
Format: Torrent | Site: ThePirateBay
.

Videos Add media

THE COMMUTER Trailer #1 NEW (2017) Liam Neeson Thriller Movie HD
THE COMMUTER Trailer #1 NEW (2017) Liam Neeson Thr...

Movie News

There are no member news items for this movie.
To write a comment please register or