The Christmas Chronicles 2

The Christmas Chronicles 2

MojibMojib   November 24, 2020  
Add to list
Chris Columbus

Movie info

Title
Confirmed and upcoming movie titles only! Search before adding to avoid dupes.
The Christmas Chronicles 2
Year
The year the movie is set to be released.
2020
Director
Chris Columbus
Genre
Pick one or multiple movie genres.
Cinema release
First cinema release date in any country.
November 18, 2020
Digital release
Official digital release date on services such as iTunes, Amazon, Netflix. It's the first known release date, without any country restriction. So if it's out on iTunes Russia first, this would be the digital release date.
November 25, 2020
Description
The Netflix movie which oddly got a cinematic run for a week. Makes you wonder who would risk getting Covid just to see Kurt Russel play Santa, for the second time.
Where you watch

Where you watch Email alert

Yes, it is available and reported below. Use the alert button to get notified when higher quality versions are available.

Download and stream reports

Is there a The Christmas Chronicles 2 torrent? Yes. Reports are available below.
When will The Christmas Chronicles 2 be available on VOD? It's set for a November 25, 2020 release.

November 25, 2020
The.Christmas.Chronicles.2.2020.1080p.WEB.H264-STRONTiUM
Video and audio quality: 5/5 | Source: Official web stream

Submitted by: Slender | Trust Rank level: Senior Member
Format: Official stream | Site: RARBG
Video ID : 1 Format : AVC Format/Info : Advanced Video Codec Format profile : High@L4 Format settings : CABAC / 4 Ref Frames Format settings, CABAC : Yes Format settings, Reference frames : 4 frames Codec ID : V_MPEG4/ISO/AVC Duration : 1 h 55 min Bit rate mode : Variable Bit rate : 4 456 kb/s Maximum bit rate : 20.0 Mb/s Width : 1 920 pixels Height : 1 080 pixels Display aspect ratio : 16:9 Frame rate mode : Constant Frame rate : 24.000 FPS Color space : YUV Chroma subsampling : 4:2:0 Bit depth : 8 bits Scan type : Progressive Bits/(Pixel*Frame) : 0.090 Stream size : 3.59 GiB (84%) Writing library : x264 core 148 r2722 1b0121b Encoding settings : cabac=1 / ref=4 / deblock=1:0:0 / analyse=0x3:0x111 / me=umh / subme=10 / psy=1 / psy_rd=1.00:0.00 / mixed_ref=1 / me_range=120 / chroma_me=1 / trellis=2 / 8x8dct=1 / cqm=0 / deadzone=21,11 / fast_pskip=1 / chroma_qp_offset=-2 / threads=8 / lookahead_threads=2 / sliced_threads=0 / nr=0 / decimate=1 / interlaced=0 / bluray_compat=0 / stitchable=1 / constrained_intra=0 / bframes=16 / b_pyramid=2 / b_adapt=2 / b_bias=0 / direct=3 / weightb=1 / open_gop=0 / weightp=2 / keyint=240 / keyint_min=121 / scenecut=0 / intra_refresh=0 / rc_lookahead=240 / rc=crf / mbtree=1 / crf=16.0 / qcomp=0.50 / qpmin=6 / qpmax=51 / qpstep=4 / vbv_maxrate=20000 / vbv_bufsize=25000 / crf_max=0.0 / nal_hrd=vbr / filler=0 / ip_ratio=1.40 / aq=1:0.80 Language : English Default : Yes Forced : No Audio ID : 2 Format : E-AC-3 JOC Format/Info : Enhanced AC-3 with Joint Object Coding Commercial name : Dolby Digital Plus with Dolby Atmos Codec ID : A_EAC3 Duration : 1 h 55 min Bit rate mode : Constant Bit rate : 768 kb/s Channel(s) : 6 channels Channel layout : L R C LFE Ls Rs Sampling rate : 48.0 kHz Frame rate : 31.250 FPS (1536 SPF) Compression mode : Lossy Stream size : 633 MiB (14%) Language : English Service kind : Complete Main Default : Yes Forced : No Complexity index : 16 Number of dynamic objects : 15 Bed channel count : 1 channel Bed channel configuration : LFE