The Catcher Was a Spy

The Catcher Was a Spy

Hot
MojibMojib   January 17, 2018  
Add to list
The Catcher Was a Spy

Movie info

TITLE
Confirmed and upcoming movie titles only! Search before adding to avoid dupes.
The Catcher Was a Spy
YEAR
The year the movie is set to be released.
2018
DIRECTOR
GENRE
Pick one or multiple movie genres.
DESCRIPTION
An impressive list of talents are involved in the book adaptation of The Catcher Was A Spy.
A baseball player finds himself working for the US government, working undercover to stop the nazis from inventing the atomic bomb. In the cast list we've got Paul Rudd, Jeff Daniels and Paul Giamatti. As well as Mark Strong and Sienna Miller. This is another movie set to premier at this year's Sundance.
WHERE YOU WATCH

Where you watch Email alert

The movie is online and reported below, Use the alert button to get notified when higher quality versions are available.

Reports

Is The Catcher Was a Spy available online? Yes. Reports of pirated torrents and streams are available below.
When will The Catcher Was a Spy be available on digital platforms like iTunes or Amazon? As of now, there's no release data announced. This includes iTunes, Amazon, Blu-Ray and DVD.

October 18, 2019
The.Catcher.Was.A.Spy.2018.1080p.BluRay.x264.DTS-FGT
Video and audio quality: 5/5 | Source: BluRay

Submitted by: Mr. Meeseeks | Trust Rank level: Supreme Member
Format: Torrent | Site: RARBG
Video ID : 1 Format : AVC Format/Info : Advanced Video Codec Format profile : [email protected] Format settings : CABAC / 4 Ref Frames Format settings, CABAC : Yes Format settings, Reference frames : 4 frames Codec ID : V_MPEG4/ISO/AVC Duration : 1 h 34 min Bit rate : 11.5 Mb/s Width : 1 920 pixels Height : 1 036 pixels Display aspect ratio : 1.85:1 Frame rate mode : Constant Frame rate : 23.976 (24000/1001) FPS Color space : YUV Chroma subsampling : 4:2:0 Bit depth : 8 bits Scan type : Progressive Bits/(Pixel*Frame) : 0.241 Stream size : 7.58 GiB (88%) Title : The.Catcher.Was.A.Spy.2018.1080p.BluRay.x264.DTS-FGT Writing library : x264 core 148 r2748 97eaef2 Encoding settings : cabac=1 / ref=4 / deblock=1:-2:-2 / analyse=0x3:0x113 / me=umh / subme=9 / psy=1 / psy_rd=1.00:0.15 / mixed_ref=1 / me_range=16 / chroma_me=1 / trellis=2 / 8x8dct=1 / cqm=0 / deadzone=21,11 / fast_pskip=1 / chroma_qp_offset=-3 / threads=72 / lookahead_threads=3 / sliced_threads=0 / nr=0 / decimate=1 / interlaced=0 / bluray_compat=0 / constrained_intra=0 / bframes=3 / b_pyramid=2 / b_adapt=1 / b_bias=0 / direct=3 / weightb=1 / open_gop=0 / weightp=2 / keyint=250 / keyint_min=25 / scenecut=40 / intra_refresh=0 / rc_lookahead=50 / rc=2pass / mbtree=1 / bitrate=11500 / ratetol=1.0 / qcomp=0.60 / qpmin=0 / qpmax=69 / qpstep=4 / cplxblur=20.0 / qblur=0.5 / vbv_maxrate=31250 / vbv_bufsize=31250 / nal_hrd=none / filler=0 / ip_ratio=1.40 / aq=1:1.00 Language : English Default : Yes Forced : No Audio ID : 2 Format : DTS Format/Info : Digital Theater Systems Codec ID : A_DTS Duration : 1 h 34 min Bit rate mode : Constant Bit rate : 1 509 kb/s Channel(s) : 6 channels Channel layout : C L R Ls Rs LFE Sampling rate : 48.0 kHz Frame rate : 93.750 FPS (512 SPF) Bit depth : 16 bits Compression mode : Lossy Stream size : 1 019 MiB (12%) Title : The.Catcher.Was.A.Spy.2018.1080p.BluRay.x264.DTS-FGT Language : English Default : Yes Forced : No Text ID : 3 Format : UTF-8 Codec ID : S_TEXT/UTF8 Codec ID/Info : UTF-8 Plain Text Duration : 1 h 23 min Bit rate : 41 b/s Count of elements : 936 Stream size : 25.6 KiB (0%) Language : English Default : Yes Forced : No
June 29, 2018
The.Catcher.Was.a.Spy.2018.1080p.WEB-DL.DD5.1.H264-FGT
Video and audio quality: 5/5 | Source: Official web stream

Submitted by: Mr. Meeseeks | Trust Rank level: Supreme Member
Format: Torrent | Site: RARBG
ViDEO: 1630 Kbps RESOLUTiON: 720x384 RUNTiME: 1h 31m 43s SUBTiTLES: English when needed AUDiO: 384 Kbps AC3 5.1 LANGUAGE: ENGLiSH ENCODER: DdHD

Videos Add media

The Catcher Was a Spy - Official Trailer | HD | IFC Films
The Catcher Was a Spy - Official Trailer | HD | IF...