The Butterfly Tree

The Butterfly Tree

Mr. MeeseeksMr. Meeseeks   April 01, 2018  
News (0)
Add to list
The Butterfly Tree

Movie info

TITLE
Confirmed and upcoming movie titles only! Search before adding to avoid dupes.
YEAR
The year the movie is set to be released.
2017
GENRE
Pick one or multiple movie genres.
CINEMA
First cinema release date in any country.
November 23, 2017
DESCRIPTION
A former burlesque queen stumbles into the lives of a grieving father and son, energizing their spirits with hope, and passion. Both men soon find themselves competing for the eye of an amazing woman.
WHERE YOU WATCH

Where you watch Email alert

The movie is online and reported below, Use the alert button to get notified when higher quality versions are available.

Reports

April 15, 2018
The.Butterfly.Tree.2017.1080p.BluRay.x264.DTS-MT
Quality: 5/5 | Source: BluRay

Submitted by: Mr. Meeseeks | Trust Rank level: Hero member
Format: Torrent | Site: RARBG
Video ID : 1 Format : AVC Format/Info : Advanced Video Codec Format profile : High@L4.1 Format settings : CABAC / 5 Ref Frames Format settings, CABAC : Yes Format settings, ReFrames : 5 frames Codec ID : V_MPEG4/ISO/AVC Duration : 1 h 36 min Bit rate : 15.2 Mb/s Width : 1 920 pixels Height : 860 pixels Display aspect ratio : 2.25:1 Frame rate mode : Constant Frame rate : 23.976 (24000/1001) FPS Color space : YUV Chroma subsampling : 4:2:0 Bit depth : 8 bits Scan type : Progressive Bits/(Pixel*Frame) : 0.383 Stream size : 10.2 GiB (91%) Title : The.Butterfly.Tree.2017.1080p.BluRay.x264.DTS-MT Language : English Default : Yes Forced : No Audio ID : 2 Format : DTS Format/Info : Digital Theater Systems Codec ID : A_DTS Duration : 1 h 36 min Bit rate mode : Constant Bit rate : 1 509 kb/s Channel(s) : 6 channels Channel positions : Front: L C R, Side: L R, LFE Sampling rate : 48.0 kHz Frame rate : 93.750 FPS (512 SPF) Bit depth : 24 bits Compression mode : Lossy Stream size : 1.01 GiB (9%) Title : The.Butterfly.Tree.2017.1080p.BluRay.x264.DTS-MT Language : English Default : Yes Forced : No
April 03, 2018
The.Butterfly.Tree.2017.HDRip.XviD.AC3-EVO
Quality: 5/5 | Source: Official web stream

Submitted by: Mr. Meeseeks | Trust Rank level: Hero member
Format: Torrent | Site: TorrentingMe
ViDEO: 1674 Kbps -2 Passes RESOLUTiON: 720x320 RUNTiME: 1h 38m 43s SUBTiTLES: No. AUDiO: 384 Kbps AC3 5.1 LANGUAGE: ENGLiSH ENCODER: DdHD

Videos Add media

THE BUTTERFLY TREE | Trailer
THE BUTTERFLY TREE | Trailer

Movie News

There are no member news items for this movie.
To write a comment please register or