The Boss Baby: Family Business

The Boss Baby: Family Business

Hot
Mr. MeeseeksMr. Meeseeks   January 02, 2018  
Add to list
The Boss Baby: Family Business

Movie info

Title
Confirmed and upcoming movie titles only! Search before adding to avoid dupes.
The Boss Baby: Family Business
Year
The year the movie is set to be released.
2021
Director
Tom McGrath
Genre
Pick one or multiple movie genres.
Digital release
Official digital release date on services such as iTunes, Amazon, Netflix. It's the first known release date, without any country restriction. So if it's out on iTunes Russia first, this would be the digital release date.
July 02, 2021
Description
In 2017, DreamWorks released “The Boss Baby” which more than tripled its budget, garnering a sequel which is planned for 2021. Universal’s acquisition of DreamWorks has led to a major focus on sequels, so if this one succeeds as well we might see quite a few ‘Boss Baby’ movies.

The voice cast features Alec Baldwin, Jeff Goldblum, Ariana Greenblatt, Eva Longoria, James Marsden, Amy Sedaris, Jimmy Kimmel, and Lisa Kudrow.
Where you watch

Where you watch Email alert

Yes, it is available and reported below. Use the alert button to get notified when higher quality versions are available.

Download and stream reports

Is there a The Boss Baby: Family Business torrent? Yes. Reports are available below.
When will The Boss Baby: Family Business be available on VOD? It's set for a July 02, 2021 release.

July 09, 2021
The.Boss.Baby.Family.Business.2021.1080p.PCOK.WEBRip.DDP5.1.x264-TOMMY
Video and audio quality: 5/5 | Source: Official web stream

Submitted by: armiestice | Trust Rank level: Senior Member
Format: Torrent | Site: RARBG
Video ID : 1 Format : AVC Format/Info : Advanced Video Codec Format profile : High@L4 Format settings : CABAC / 4 Ref Frames Format settings, CABAC : Yes Format settings, Reference frames : 4 frames Codec ID : V_MPEG4/ISO/AVC Duration : 1 h 47 min Bit rate : 7 328 kb/s Width : 1 920 pixels Height : 1 080 pixels Display aspect ratio : 16:9 Frame rate mode : Constant Frame rate : 23.976 (24000/1001) FPS Color space : YUV Chroma subsampling : 4:2:0 Bit depth : 8 bits Scan type : Progressive Bits/(Pixel*Frame) : 0.147 Stream size : 5.49 GiB (97%) Default : Yes Forced : No Color range : Limited Color primaries : BT.709 Transfer characteristics : BT.709 Matrix coefficients : BT.709 Audio ID : 2 Format : E-AC-3 Format/Info : Enhanced AC-3 Commercial name : Dolby Digital Plus Codec ID : A_EAC3 Duration : 1 h 47 min Bit rate mode : Constant Bit rate : 192 kb/s Channel(s) : 6 channels Channel layout : L R C LFE Ls Rs Sampling rate : 48.0 kHz Frame rate : 31.250 FPS (1536 SPF) Compression mode : Lossy Stream size : 147 MiB (3%) Language : English Service kind : Complete Main Default : Yes Forced : No
July 02, 2021
The.Boss.Baby.Family.Business.2021.720p.WEBRip.800MB.x264-GalaxyRG
Video and audio quality: 4/5 | Source: Official web stream

Submitted by: Costa | Trust Rank level: Legend Member
Format: Torrent | Site: torrentgalaxy
MEDIAINFO Container = Matroska (mkv) Duration = 01:47:20.213 Filesize = 797 MiB Overall bitrate = 1 039 kb/s Video Codec info = AVC High@L3.1 | V_MPEG4/ISO/AVC Resolution = 1280x720 Display AR = 1.778 | 16:9 Bitrate = 7 328 kb/s Framerate = VFR 23.976 Color space = YUV Chroma subsampling = 4:2:0 Encoder = x264 - core 157 Audio Codec info = AAC | A_AAC-2 Channels = 2 Bitrate = 192 kb/s Samplerate = 48.0 kHz Language = English Included subtitles English

Videos Add media

THE BOSS BABY: FAMILY BUSINESS | Official Trailer
THE BOSS BABY: FAMILY BUSINESS | Official Trailer