The Blazing World

The Blazing World

Mr. MeeseeksMr. Meeseeks   September 24, 2021  
Add to list
The Blazing World

Movie info

Title
Confirmed and upcoming movie titles only! Search before adding to avoid dupes.
The Blazing World
Year
The year the movie is set to be released.
2021
Director
Carlson Young
Genre
Pick one or multiple movie genres.
Digital release
Official digital release date on services such as iTunes, Amazon, Netflix. It's the first known release date, without any country restriction. So if it's out on iTunes Russia first, this would be the digital release date.
October 15, 2021
Description
Starring Carlson Young, Udo Kier, Dermot Mulroney, Vinessa Shaw, John Karna, Edith González, and SoKo.
Where you watch

Where you watch Email alert

Yes, it is available and reported below. Use the alert button to get notified when higher quality versions are available.

Download and stream reports

Is there a The Blazing World torrent? Yes. Reports are available below.
When will The Blazing World be available on VOD? It's set for a October 15, 2021 release.

October 15, 2021
The.Blazing.World.2021.1080p.WEBRip.DD5.1.x264-NOGRP
Video and audio quality: 5/5 | Source: Official web stream

Submitted by: Mr. Meeseeks | Trust Rank level: Supreme Member
Format: Torrent | Site: RARBG
Video ID : 1 Format : AVC Format/Info : Advanced Video Codec Format profile : High@L4 Format settings : CABAC / 5 Ref Frames Format settings, CABAC : Yes Format settings, Reference frames : 5 frames Codec ID : V_MPEG4/ISO/AVC Duration : 1 h 39 min Bit rate : 6 712 kb/s Width : 1 908 pixels Height : 860 pixels Display aspect ratio : 2.2:1 Frame rate mode : Constant Frame rate : 23.976 (24000/1001) FPS Color space : YUV Chroma subsampling : 4:2:0 Bit depth : 8 bits Scan type : Progressive Bits/(Pixel*Frame) : 0.171 Stream size : 4.66 GiB (95%) Language : English Default : Yes Forced : No Color range : Limited Color primaries : BT.709 Transfer characteristics : BT.709 Matrix coefficients : BT.709 Audio ID : 2 Format : AC-3 Format/Info : Audio Coding 3 Commercial name : Dolby Digital Codec ID : A_AC3 Duration : 1 h 39 min Bit rate mode : Constant Bit rate : 384 kb/s Channel(s) : 6 channels Channel layout : L R C LFE Ls Rs Sampling rate : 48.0 kHz Frame rate : 31.250 FPS (1536 SPF) Compression mode : Lossy Stream size : 273 MiB (5%) Title : English Language : English Service kind : Complete Main Default : No Forced : No Text ID : 3 Format : UTF-8 Codec ID : S_TEXT/UTF8 Codec ID/Info : UTF-8 Plain Text Duration : 1 h 33 min Bit rate : 29 b/s Count of elements : 1044 Stream size : 20.3 KiB (0%) Language : English Default : Yes Forced : No

Videos Add media

The Blazing World | Official Trailer (HD) | Vertical Entertainment
The Blazing World | Official Trailer (HD) | Vertic...