Take Your Pills

Take Your Pills

Mr. MeeseeksMr. Meeseeks   March 18, 2018  
Add to list
Take Your Pills

Movie info

TITLE
Confirmed and upcoming movie titles only! Search before adding to avoid dupes.
Take Your Pills
YEAR
The year the movie is set to be released.
2018
GENRE
Pick one or multiple movie genres.
CINEMA
First cinema release date in any country.
March 16, 2018
DESCRIPTION
Americans consume prescription medications at an alarming rate, and this film takes a look at the willingness of doctors in handing out these pills as well as the eagerness of patients to consume them. A significant emphasis is placed on Adderall, which is abused, often legally, by students, athletes, coders, truck drivers, and everyone in between.
WHERE YOU WATCH

Where you watch Email alert

The movie is online and reported below, Use the alert button to get notified when higher quality versions are available.

Reports

Is Take Your Pills available online? Yes. Reports of pirated torrents and streams are available below.
When will Take Your Pills be available on digital platforms like iTunes or Amazon? As of now, there's no release data announced. This includes iTunes, Amazon, Blu-Ray and DVD.

March 18, 2018
Take Your Pills 2018 720p NF WEB-HD x264 ESub
Video and audio quality: 5/5 | Source: Official web stream

Submitted by: Mr. Meeseeks | Trust Rank level: Supreme Member
Format: Torrent | Site: 1337x
Subtitles in English, Swedish, German, Finnish, and Norwegian. Video ID : 1 Format : AVC Format/Info : Advanced Video Codec Format profile : [email protected] Format settings : CABAC / 4 Ref Frames Format settings, CABAC : Yes Format settings, RefFrames : 4 frames Codec ID : V_MPEG4/ISO/AVC Duration : 1 h 27 min Bit rate : 1 200 kb/s Width : 1 280 pixels Height : 720 pixels Display aspect ratio : 16:9 Frame rate mode : Constant Frame rate : 23.976 (24000/1001) FPS Color space : YUV Chroma subsampling : 4:2:0 Bit depth : 8 bits Scan type : Progressive Bits/(Pixel*Frame) : 0.054 Stream size : 738 MiB (90%) Writing library : x264 core 148 r2708 86b7198 Default : Yes Forced : No Audio ID : 2 Format : AAC Format/Info : Advanced Audio Codec Format profile : HE-AAC / LC Format settings : Explicit Codec ID : A_AAC-2 Duration : 1 h 27 min Bit rate : 127 kb/s Channel(s) : 2 channels Channel positions : Front: L R Sampling rate : 48.0 kHz / 24.0 kHz Frame rate : 23.438 FPS (1024 SPF) Compression mode : Lossy Stream size : 79.5 MiB (10%) Language : English Default : Yes Forced : No

Videos Add media

Take Your Pills | Official Trailer [HD] ] Netflix
Take Your Pills | Official Trailer [HD] ] Netflix