Sweet Girl

Sweet Girl

Mr. MeeseeksMr. Meeseeks   July 09, 2021  
Add to list
Sweet Girl

Movie info

Title
Confirmed and upcoming movie titles only! Search before adding to avoid dupes.
Sweet Girl
Year
The year the movie is set to be released.
2021
Director
Brian Andrew Mendoza
Genre
Pick one or multiple movie genres.
Digital release
Official digital release date on services such as iTunes, Amazon, Netflix. It's the first known release date, without any country restriction. So if it's out on iTunes Russia first, this would be the digital release date.
August 20, 2021
Description
Starring Jason Momoa, Isabela Merced, Manuel Garcia-Rulfo, Adria Arjona, Raza Jaffrey, Justin Bartha, Lex Scott Davis, Amy Brenneman, and Michael Raymond-James.
Where you watch

Where you watch Email alert

Yes, it is available and reported below. Use the alert button to get notified when higher quality versions are available.

Download and stream reports

Is there a Sweet Girl torrent? Yes. Reports are available below.
When will Sweet Girl be available on VOD? It's set for a August 20, 2021 release.

August 20, 2021
Sweet.Girl.2021.1080p.NF.WEB-DL.x265.10bit.HDR.DDP5.1.Atmos-AGLET
Video and audio quality: 5/5 | Source: Official web stream

Submitted by: Mr. Meeseeks | Trust Rank level: Supreme Member
Format: Torrent | Site: RARBG
Video ID : 1 Format : HEVC Format/Info : High Efficiency Video Coding Format profile : Main 10@L4@Main HDR format : SMPTE ST 2086, HDR10 compatible Codec ID : V_MPEGH/ISO/HEVC Duration : 1 h 48 min Bit rate : 5 673 kb/s Width : 1 920 pixels Height : 1 080 pixels Display aspect ratio : 16:9 Frame rate mode : Constant Frame rate : 24.000 FPS Color space : YUV Chroma subsampling : 4:2:0 (Type 2) Bit depth : 10 bits Bits/(Pixel*Frame) : 0.114 Stream size : 4.29 GiB (88%) Default : Yes Forced : No Color range : Limited Color primaries : BT.2020 Transfer characteristics : PQ Matrix coefficients : BT.2020 non-constant Mastering display color primaries : Display P3 Mastering display luminance : min: 0.0001 cd/m2, max: 1000 cd/m2 Maximum Content Light Level : 756 cd/m2 Maximum Frame-Average Light Level : 378 cd/m2 Audio ID : 2 Format : E-AC-3 JOC Format/Info : Enhanced AC-3 with Joint Object Coding Commercial name : Dolby Digital Plus with Dolby Atmos Codec ID : A_EAC3 Duration : 1 h 50 min Bit rate mode : Constant Bit rate : 768 kb/s Channel(s) : 6 channels Channel layout : L R C LFE Ls Rs Sampling rate : 48.0 kHz Frame rate : 31.250 FPS (1536 SPF) Compression mode : Lossy Stream size : 605 MiB (12%) Language : English Service kind : Complete Main Default : Yes Forced : No Complexity index : 16 Number of dynamic objects : 15 Bed channel count : 1 channel Bed channel configuration : LFE

Videos Add media

Sweet Girl | Official Trailer | Netflix
Sweet Girl | Official Trailer | Netflix