Superintelligence

Superintelligence

Ivana 🌿Ivana 🌿   August 11, 2019  
Add to list
Superintelligence

Movie info

Title
Confirmed and upcoming movie titles only! Search before adding to avoid dupes.
Superintelligence
Year
The year the movie is set to be released.
2020
Director
Ben Falcone
Genre
Pick one or multiple movie genres.
Digital release
Official digital release date on services such as iTunes, Amazon, Netflix. It's the first known release date, without any country restriction. So if it's out on iTunes Russia first, this would be the digital release date.
November 26, 2020
Description
Starring Melissa McCarthy, James Corden, Bobby Cannavale, Brian Tyree Henry, Octavia Spencer, Jean Smart, Ken Griffey Jr., Sam Richardson, Ben Falcone, Sarah Baker, Karan Soni, Jessica St. Clair, Usman Ally, Michael Beach, Damon Jones, Richie Merritt, and Dipti Mehta.
Where you watch

Where you watch Email alert

Yes, it is available and reported below. Use the alert button to get notified when higher quality versions are available.

Download and stream reports

Is there a Superintelligence torrent? Yes. Reports are available below.
When will Superintelligence be available on VOD? It's set for a November 26, 2020 release.

November 26, 2020
Superintelligence.2020.720p.WEB.H264-NAISU
Video and audio quality: 5/5 | Source: Official web stream

Submitted by: Mr. Meeseeks | Trust Rank level: Supreme Member
Format: Torrent | Site: RARBG
Video ID : 1 Format : AVC Format/Info : Advanced Video Codec Format profile : Main@L3.1 Format settings : CABAC / 4 Ref Frames Format settings, CABAC : Yes Format settings, Reference frames : 4 frames Codec ID : V_MPEG4/ISO/AVC Duration : 1 h 45 min Bit rate mode : Variable Bit rate : 3 321 kb/s Maximum bit rate : 5 100 kb/s Width : 1 280 pixels Height : 544 pixels Display aspect ratio : 2.35:1 Frame rate mode : Constant Frame rate : 23.976 (24000/1001) FPS Color space : YUV Chroma subsampling : 4:2:0 Bit depth : 8 bits Scan type : Progressive Bits/(Pixel*Frame) : 0.199 Stream size : 2.45 GiB (88%) Default : Yes Forced : No Color range : Limited Color primaries : BT.709 Transfer characteristics : BT.709 Matrix coefficients : BT.709 Audio ID : 2 Format : AC-3 Format/Info : Audio Coding 3 Commercial name : Dolby Digital Codec ID : A_AC3 Duration : 1 h 45 min Bit rate mode : Constant Bit rate : 384 kb/s Channel(s) : 6 channels Channel layout : L R C LFE Ls Rs Sampling rate : 48.0 kHz Frame rate : 31.250 FPS (1536 SPF) Compression mode : Lossy Stream size : 291 MiB (10%) Language : English Service kind : Complete Main Default : Yes Forced : No Text ID : 3 Format : UTF-8 Codec ID : S_TEXT/UTF8 Codec ID/Info : UTF-8 Plain Text Title : English Language : English Default : No Forced : No

Videos Add media

Superintelligence | Official Trailer | HBO Max
Superintelligence | Official Trailer | HBO Max