Sunset on the River Styx

Sunset on the River Styx

Hot
Mr. MeeseeksMr. Meeseeks   March 02, 2020  
Add to list
Sunset on the River Styx

Movie info

Title
Confirmed and upcoming movie titles only! Search before adding to avoid dupes.
Sunset on the River Styx
Year
The year the movie is set to be released.
2021
Director
Aaron Pagniano
Genre
Pick one or multiple movie genres.
Cinema release
First cinema release date in any country.
July 30, 2021
Digital release
Official digital release date on services such as iTunes, Amazon, Netflix. It's the first known release date, without any country restriction. So if it's out on iTunes Russia first, this would be the digital release date.
October 05, 2021
Description
Starring Phillip Andre Botello, and Jacqueline Jandrell.
Where you watch

Where you watch Email alert

Yes, it is available and reported below. Use the alert button to get notified when higher quality versions are available.

Download and stream reports

Is there a Sunset on the River Styx torrent? Yes. Reports are available below.
When will Sunset on the River Styx be available on VOD? It's set for a October 05, 2021 release.

October 05, 2021
Sunset.on.the.River.Styx.2020.1080p.WEBRip.DD5.1.x264-NOGRP
Video and audio quality: 5/5 | Source: Official web stream

Submitted by: Mr. Meeseeks | Trust Rank level: Supreme Member
Format: Torrent | Site: RARBG
Video ID : 1 Format : AVC Format/Info : Advanced Video Codec Format profile : High@L4 Format settings : CABAC / 5 Ref Frames Format settings, CABAC : Yes Format settings, Reference frames : 5 frames Codec ID : V_MPEG4/ISO/AVC Duration : 1 h 34 min Bit rate : 6 715 kb/s Width : 1 920 pixels Height : 798 pixels Display aspect ratio : 2.40:1 Frame rate mode : Constant Frame rate : 23.976 (24000/1001) FPS Color space : YUV Chroma subsampling : 4:2:0 Bit depth : 8 bits Scan type : Progressive Bits/(Pixel*Frame) : 0.183 Stream size : 4.42 GiB (95%) Language : English Default : Yes Forced : No Color range : Limited Color primaries : BT.709 Transfer characteristics : BT.709 Matrix coefficients : BT.709 Audio ID : 2 Format : AC-3 Format/Info : Audio Coding 3 Commercial name : Dolby Digital Codec ID : A_AC3 Duration : 1 h 34 min Bit rate mode : Constant Bit rate : 384 kb/s Channel(s) : 6 channels Channel layout : L R C LFE Ls Rs Sampling rate : 48.0 kHz Frame rate : 31.250 FPS (1536 SPF) Compression mode : Lossy Stream size : 259 MiB (5%) Title : English Language : English Service kind : Complete Main Default : No Forced : No Text ID : 3 Format : UTF-8 Codec ID : S_TEXT/UTF8 Codec ID/Info : UTF-8 Plain Text Duration : 1 h 28 min Bit rate : 35 b/s Count of elements : 837 Stream size : 23.4 KiB (0%) Language : English Default : Yes Forced : No

Videos Add media

Sunset On The River Styx Trailer - Cinequest 2020
Sunset On The River Styx Trailer - Cinequest 2020