Submergence

Submergence

JuancoJuanco   August 30, 2017  
News (0)
Add to list
Submergence

Movie info

TITLE
Confirmed and upcoming movie titles only! Search before adding to avoid dupes.
YEAR
The year the movie is set to be released.
2017
DIRECTOR
GENRE
Pick one or multiple movie genres.
DESCRIPTION
James More (James McAvoy) is a hydraulic engineer who has been taken hostage in Somalia by jihadist terrorists, who suspect he is a British spy. Danielle 'Danny' Flinders (Alicia Vikander) is a biomathematic who works on a project of immersion in the deeper waters of the oceans to demonstrate her theory on the origin of life on the planet. A year earlier James and Danny met in an isolated hotel on the French Atlantic coast, where both were preparing their dangerous missions, and there they found, in each other, the love of their lives. Now, separated, Danny begins her dangerous immersion to the bottom of the ocean in Greenland without knowing if James is still alive.
WHERE YOU WATCH

Where you watch Email alert

The movie is online and reported below, Use the alert button to get notified when higher quality versions are available.

Reports

May 07, 2018
Submergence.2017.1080p.BluRay.REMUX.AVC.DTS-HD.MA.5.1-FGT
Video and audio quality: 5/5 | Source: BluRay

Submitted by: Mr. Meeseeks | Trust Rank level: Legend Member
Format: Torrent | Site: RARBG
Video ID : 1 Format : AVC Format/Info : Advanced Video Codec Format profile : [email protected] Format settings : CABAC / 4 Ref Frames Format settings, CABAC : Yes Format settings, ReFrames : 4 frames Format settings, GOP : M=3, N=12 Codec ID : V_MPEG4/ISO/AVC Duration : 1 h 51 min Bit rate mode : Variable Bit rate : 18.8 Mb/s Maximum bit rate : 35.0 Mb/s Width : 1 920 pixels Height : 1 080 pixels Display aspect ratio : 16:9 Frame rate mode : Constant Frame rate : 24.000 FPS Standard : NTSC Color space : YUV Chroma subsampling : 4:2:0 Bit depth : 8 bits Scan type : Progressive Bits/(Pixel*Frame) : 0.377 Stream size : 14.6 GiB (70%) Title : Submergence.2017.1080p.BluRay.REMUX.AVC.DTS-HD.MA.5.1-FGT Language : English Default : No Forced : No Color range : Limited Color primaries : BT.709 Transfer characteristics : BT.709 Matrix coefficients : BT.709 Audio #1 ID : 2 Format : DTS Format/Info : Digital Theater Systems Format profile : MA / Core Codec ID : A_DTS Duration : 1 h 51 min Bit rate mode : Variable / Constant Bit rate : 4 074 kb/s / 1 509 kb/s Channel(s) : 6 channels Channel positions : Front: L C R, Side: L R, LFE Sampling rate : 48.0 kHz Frame rate : 93.750 FPS (512 SPF) Bit depth : 24 bits Compression mode : Lossless / Lossy Stream size : 3.18 GiB (15%) Title : Submergence.2017.1080p.BluRay.REMUX.AVC.DTS-HD.MA.5.1-FGT Language : English Default : Yes Forced : No Audio #2 ID : 3 Format : DTS Format/Info : Digital Theater Systems Codec ID : A_DTS Duration : 1 h 51 min Bit rate mode : Constant Bit rate : 1 509 kb/s Channel(s) : 6 channels Channel positions : Front: L C R, Side: L R, LFE Sampling rate : 48.0 kHz Frame rate : 93.750 FPS (512 SPF) Bit depth : 24 bits Compression mode : Lossy Stream size : 1.18 GiB (6%) Title : Submergence.2017.1080p.BluRay.REMUX.AVC.DTS-HD.MA.5.1-FGT Language : English Default : No Forced : No Audio #3 ID : 4 Format : PCM Format settings : Little / Signed Codec ID : A_PCM/INT/LIT Duration : 1 h 51 min Bit rate mode : Constant Bit rate : 2 304 kb/s Channel(s) : 2 channels Sampling rate : 48.0 kHz Frame rate : 30.000 FPS (1600 SPF) Bit depth : 24 bits Stream size : 1.80 GiB (9%) Title : Submergence.2017.1080p.BluRay.REMUX.AVC.DTS-HD.MA.5.1-FGT Language : English Default : No Forced : No Text ID : 5 Format : PGS Muxing mode : zlib Codec ID : S_HDMV/PGS Codec ID/Info : Picture based subtitle format used on BDs/HD-DVDs Duration : 1 h 45 min Bit rate : 32.7 kb/s Count of elements : 1649 Stream size : 24.7 MiB (0%) Title : English-PGS Language : English Default : No Forced : No
April 13, 2018
Submergence 2018 HDRip XviD AC3-EVO
Video and audio quality: 5/5 | Source: Official web stream

Submitted by: Mr. Meeseeks | Trust Rank level: Legend Member
Format: Torrent | Site: TorrentingMe
SOURCE: iTunes ViDEO: 1395 Kbps -2 Passes RESOLUTiON: 720x384 RUNTiME: 1h 51m 43s SUBTiTLES: No. AUDiO: 384 Kbps AC3 5.1 LANGUAGE: ENGLiSH ENCODER: DdHD

Movie News

There are no member news items for this movie.
To write a comment please register or