Studio 666

Studio 666

Hot
Mr. MeeseeksMr. Meeseeks   January 12, 2022  
Add to list
Studio 666

Movie info

Title
Confirmed and upcoming movie titles only! Search before adding to avoid dupes.
Studio 666
Year
The year the movie is set to be released.
2022
Director
BJ McDonnell
Genre
Pick one or multiple movie genres.
Cinema release
First cinema release date in any country.
February 25, 2022
Description
"Studio 666" is a horror comedy starring each member of the band "Foo Fighters". The full cast includes Dave Grohl, Taylor Hawkins, Nate Mendel, Pat Smear, Chris Shiflett, Rami Jaffee, Whitney Cummings, Leslie Grossman, Will Forte, Jenna Ortega, and Jeff Garlin.
Where you watch

Where you watch Email alert

Yes, it is available and reported below. Use the alert button to get notified when higher quality versions are available.

Download and stream reports

Is there a Studio 666 torrent? Yes. Reports are available below.
When will Studio 666 be available on digital platforms like iTunes, Amazon or Apple+? As of now, there's no release date announced. This includes iTunes, Amazon, Blu-Ray and DVD.

July 15, 2022
Studio.666.2022.1080p.BluRay.x264-KNiVES
Video and audio quality: 5/5 | Source: BluRay

Submitted by: Mr. Meeseeks | Trust Rank level: Supreme Member
Format: Torrent | Site: RARBG
Video ID : 1 Format : AVC Format/Info : Advanced Video Codec Format profile : High@L4.1 Format settings : CABAC / 5 Ref Frames Format settings, CABAC : Yes Format settings, Reference frames : 5 frames Codec ID : V_MPEG4/ISO/AVC Duration : 1 h 46 min Bit rate : 15.9 Mb/s Width : 1 920 pixels Height : 804 pixels Display aspect ratio : 2.40:1 Frame rate mode : Constant Frame rate : 23.976 (24000/1001) FPS Color space : YUV Chroma subsampling : 4:2:0 Bit depth : 8 bits Scan type : Progressive Bits/(Pixel*Frame) : 0.430 Stream size : 11.8 GiB (77%) Writing library : x264 core 164 r3095 baee400 Encoding settings : cabac=1 / ref=5 / deblock=1:-3:-3 / analyse=0x3:0x133 / me=umh / subme=9 / psy=1 / psy_rd=1.00:0.00 / mixed_ref=1 / me_range=16 / chroma_me=1 / trellis=2 / 8x8dct=1 / cqm=0 / deadzone=21,11 / fast_pskip=0 / chroma_qp_offset=-2 / threads=25 / lookahead_threads=2 / sliced_threads=0 / nr=0 / decimate=1 / interlaced=0 / bluray_compat=0 / constrained_intra=0 / bframes=3 / b_pyramid=2 / b_adapt=2 / b_bias=0 / direct=3 / weightb=1 / open_gop=0 / weightp=2 / keyint=250 / keyint_min=23 / scenecut=40 / intra_refresh=0 / rc_lookahead=60 / rc=crf / mbtree=1 / crf=15.5 / qcomp=0.60 / qpmin=0 / qpmax=69 / qpstep=4 / ip_ratio=1.40 / aq=1:1.00 Language : English Default : Yes Forced : No Audio #1 ID : 2 Format : DTS XLL Format/Info : Digital Theater Systems Commercial name : DTS-HD Master Audio Codec ID : A_DTS Duration : 1 h 46 min Bit rate mode : Variable Bit rate : 4 722 kb/s Channel(s) : 8 channels Channel layout : C L R LFE Lb Rb Lss Rss Sampling rate : 48.0 kHz Frame rate : 93.750 FPS (512 SPF) Bit depth : 24 bits Compression mode : Lossless Stream size : 3.51 GiB (23%) Language : English Default : Yes Forced : No Audio #2 ID : 3 Format : AAC LC Format/Info : Advanced Audio Codec Low Complexity Codec ID : A_AAC-2 Duration : 1 h 46 min Bit rate : 123 kb/s Channel(s) : 2 channels Channel layout : L R Sampling rate : 48.0 kHz Frame rate : 46.875 FPS (1024 SPF) Compression mode : Lossy Delay relative to video : 9 ms Stream size : 93.9 MiB (1%) Title : commentary Language : English Default : Yes Forced : No

Videos Add media

Studio 666 | Official Trailer | Only in Theatres February 25
Studio 666 | Official Trailer | Only in Theatres F...