Stuck

Stuck

Mr. MeeseeksMr. Meeseeks   May 10, 2018  
Add to list
Stuck

Movie info

TITLE
Confirmed and upcoming movie titles only! Search before adding to avoid dupes.
Stuck
YEAR
The year the movie is set to be released.
2019
GENRE
Pick one or multiple movie genres.
CINEMA
First cinema release date in any country.
April 19, 2019
DESCRIPTION
Michael Berry’s original musical, “Stuck”, is about a group of strangers whose lives become intertwined when stuck together on a subway, and it has won many awards throughout its festival run. The cast features Giancarlo Esposito, Amy Madigan, Ashanti, Arden Cho, Omar Chaparro, and Gerard Canonico.
WHERE YOU WATCH

Where you watch Email alert

The movie is online and reported below, Use the alert button to get notified when higher quality versions are available.

Reports

Is Stuck available online? Yes. Reports of pirated torrents and streams are available below.
When will Stuck be available on digital platforms like iTunes or Amazon? As of now, there's no release data announced. This includes iTunes, Amazon, Blu-Ray and DVD.

August 27, 2019
Stuck.2017.1080p.AMZN.WEBRip.DDP2.0.x264-NTG
Video and audio quality: 5/5 | Source: Official web stream

Submitted by: Mr. Meeseeks | Trust Rank level: Supreme Member
Format: Torrent | Site: RARBG
Video ID : 1 Format : AVC Format/Info : Advanced Video Codec Format profile : [email protected] Format settings : CABAC / 4 Ref Frames Format settings, CABAC : Yes Format settings, Reference frames : 4 frames Codec ID : V_MPEG4/ISO/AVC Duration : 1 h 23 min Bit rate mode : Constant Bit rate : 8 966 kb/s Nominal bit rate : 10 000 kb/s Width : 1 920 pixels Height : 1 080 pixels Display aspect ratio : 16:9 Frame rate mode : Constant Frame rate : 23.976 (24000/1001) FPS Color space : YUV Chroma subsampling : 4:2:0 Bit depth : 8 bits Scan type : Progressive Bits/(Pixel*Frame) : 0.180 Stream size : 5.25 GiB (98%) Default : Yes Forced : No Color range : Limited Color primaries : BT.709 Transfer characteristics : BT.709 Matrix coefficients : BT.709 Audio ID : 2 Format : E-AC-3 Format/Info : Enhanced AC-3 Commercial name : Dolby Digital Plus Codec ID : A_EAC3 Duration : 1 h 23 min Bit rate mode : Constant Bit rate : 224 kb/s Channel(s) : 2 channels Channel layout : L R Sampling rate : 48.0 kHz Frame rate : 31.250 FPS (1536 SPF) Compression mode : Lossy Stream size : 134 MiB (2%) Language : English Service kind : Complete Main Default : Yes Forced : No Text #1 ID : 3 Format : UTF-8 Codec ID : S_TEXT/UTF8 Codec ID/Info : UTF-8 Plain Text Duration : 1 h 22 min Bit rate : 61 b/s Count of elements : 1176 Stream size : 37.2 KiB (0%) Language : English Default : No Forced : No Text #2 ID : 4 Format : UTF-8 Codec ID : S_TEXT/UTF8 Codec ID/Info : UTF-8 Plain Text Duration : 1 h 23 min Bit rate : 66 b/s Count of elements : 1360 Stream size : 40.3 KiB (0%) Title : SDH Language : English Default : No Forced : No

Videos Add media

STUCK Official Trailer #1 (2017) | Ashanti, Amy Madigan | Musical Film HD Trailer
STUCK Official Trailer #1 (2017) | Ashanti, Amy Ma...