Strike

Strike

Mr. MeeseeksMr. Meeseeks   April 15, 2019  
Add to list
Strike

Movie info

TITLE
Confirmed and upcoming movie titles only! Search before adding to avoid dupes.
Strike
YEAR
The year the movie is set to be released.
2019
DIRECTOR
GENRE
Pick one or multiple movie genres.
CINEMA
First cinema release date in any country.
May 11, 2019
DESCRIPTION
The feature length debut from director Trevor Hardy is the stop-motion animated film, "Strike".

The voice cast features Lizzie Waterworth, Ken Stott, Alex Kelly, Naomi McDonald, Tom Turner, Dave Mounfield, and Beth Chalmers.
WHERE YOU WATCH

Where you watch Email alert

The movie is online and reported below, Use the alert button to get notified when higher quality versions are available.

Reports

Is Strike available online? Yes. Reports of pirated torrents and streams are available below.
When will Strike be available on digital platforms like iTunes or Amazon? As of now, there's no release data announced. This includes iTunes, Amazon, Blu-Ray and DVD.

September 03, 2019
Strike.2018.1080p.WEB-DL.DD5.1.H264-FGT
Video and audio quality: 5/5 | Source: Official web stream

Submitted by: Mr. Meeseeks | Trust Rank level: Supreme Member
Format: Torrent | Site: RARBG
Video ID : 1 Format : AVC Format/Info : Advanced Video Codec Format profile : [email protected] Format settings : CABAC / 4 Ref Frames Format settings, CABAC : Yes Format settings, Reference frames : 4 frames Codec ID : V_MPEG4/ISO/AVC Duration : 1 h 40 min Bit rate : 5 174 kb/s Width : 1 920 pixels Height : 1 012 pixels Display aspect ratio : 1.897 Frame rate mode : Constant Frame rate : 24.000 FPS Color space : YUV Chroma subsampling : 4:2:0 Bit depth : 8 bits Scan type : Progressive Bits/(Pixel*Frame) : 0.111 Stream size : 3.63 GiB (93%) Title : Strike.2018.1080p.WEB-DL.DD5.1.H264-FGT Language : English Default : Yes Forced : No Color range : Limited Color primaries : BT.709 Transfer characteristics : BT.709 Matrix coefficients : BT.709 Audio ID : 2 Format : AC-3 Format/Info : Audio Coding 3 Commercial name : Dolby Digital Codec ID : A_AC3 Duration : 1 h 40 min Bit rate mode : Constant Bit rate : 384 kb/s Channel(s) : 6 channels Channel layout : L R C LFE Ls Rs Sampling rate : 48.0 kHz Frame rate : 31.250 FPS (1536 SPF) Bit depth : 16 bits Compression mode : Lossy Stream size : 276 MiB (7%) Title : Strike.2018.1080p.WEB-DL.DD5.1.H264-FGT Language : English Service kind : Complete Main Default : Yes Forced : No

Videos Add media

STRIKE Official UK Trailer 2019
STRIKE Official UK Trailer 2019