Strange But True

Strange But True

Mr. MeeseeksMr. Meeseeks   March 20, 2018  
Add to list
Strange But True

Movie info

TITLE
Confirmed and upcoming movie titles only! Search before adding to avoid dupes.
Strange But True
YEAR
The year the movie is set to be released.
2019
DIRECTOR
GENRE
Pick one or multiple movie genres.
DIGITAL RELEASE
Official digital release date on services such as iTunes, Amazon, Netflix. It's the first known release date, without any country restriction. So if it's out on iTunes Russia first, this would be the digital release date.
September 06, 2019
DESCRIPTION
After her boyfriend dies under suspicious circumstances, a young woman must inform his family members that she’s pregnant with his child. Amy Ryan stars alongside Nick Robinson, Margaret Qualley, Brian Cox, and Greg Kinnear.
WHERE YOU WATCH

Where you watch Email alert

The movie is online and reported below, Use the alert button to get notified when higher quality versions are available.

Reports

Is Strange But True available online? Yes. Reports of pirated torrents and streams are available below.
When will Strange But True be available on digital platforms like iTunes or Amazon? It's set for a September 06, 2019 release. This likely includes iTunes and Amazon unless it is an exclusive Netflix, or similar, release. Physical versions on Blu-Ray or DVD will likely follow.

September 06, 2019
Strange.But.True.2019.1080p.WEB-DL.DD5.1.H264-FGT
Video and audio quality: 5/5 | Source: Official web stream

Submitted by: Mr. Meeseeks | Trust Rank level: Supreme Member
Format: Torrent | Site: RARBG
Video ID : 1 Format : AVC Format/Info : Advanced Video Codec Format profile : [email protected] Format settings : CABAC / 5 Ref Frames Format settings, CABAC : Yes Format settings, Reference frames : 5 frames Codec ID : V_MPEG4/ISO/AVC Duration : 1 h 35 min Bit rate : 4 537 kb/s Width : 1 912 pixels Height : 792 pixels Display aspect ratio : 2.40:1 Frame rate mode : Constant Frame rate : 23.976 (24000/1001) FPS Color space : YUV Chroma subsampling : 4:2:0 Bit depth : 8 bits Scan type : Progressive Bits/(Pixel*Frame) : 0.125 Stream size : 3.03 GiB (92%) Title : Strange.But.True.2019.1080p.WEB-DL.DD5.1.H264-FGT Language : English Default : Yes Forced : No Color range : Limited Color primaries : BT.709 Transfer characteristics : BT.709 Matrix coefficients : BT.709 Audio ID : 2 Format : AC-3 Format/Info : Audio Coding 3 Commercial name : Dolby Digital Codec ID : A_AC3 Duration : 1 h 35 min Bit rate mode : Constant Bit rate : 384 kb/s Channel(s) : 6 channels Channel layout : L R C LFE Ls Rs Sampling rate : 48.0 kHz Frame rate : 31.250 FPS (1536 SPF) Bit depth : 16 bits Compression mode : Lossy Stream size : 263 MiB (8%) Title : Strange.But.True.2019.1080p.WEB-DL.DD5.1.H264-FGT Language : English Service kind : Complete Main Default : Yes Forced : No Text ID : 3 Format : UTF-8 Codec ID : S_TEXT/UTF8 Codec ID/Info : UTF-8 Plain Text Duration : 1 h 30 min Bit rate : 69 b/s Count of elements : 1211 Stream size : 46.1 KiB (0%) Language : English Default : Yes Forced : No

Videos Add media

STRANGE BUT TRUE | In Select Theaters and On Demand 9/6
STRANGE BUT TRUE | In Select Theaters and On Deman...