The SpongeBob Movie: Sponge On The Run

The SpongeBob Movie: Sponge On The Run

Hot
Mr. MeeseeksMr. Meeseeks   February 12, 2018  
Add to list
The SpongeBob Movie: Sponge On The Run

Movie info

Title
Confirmed and upcoming movie titles only! Search before adding to avoid dupes.
The SpongeBob Movie: Sponge On The Run
Year
The year the movie is set to be released.
2020
Director
Genre
Pick one or multiple movie genres.
Cinema release
First cinema release date in any country.
August 14, 2020
Digital release
Official digital release date on services such as iTunes, Amazon, Netflix. It's the first known release date, without any country restriction. So if it's out on iTunes Russia first, this would be the digital release date.
November 05, 2020
Description
Despite having always been perceived as a silly one-off film, both “SpongeBob” movies have brought in a combined half-billion dollars at the box office. Paramount made further sequels a priority, with the third film having half the time between releases compared to the first two films. Screenwriter of the first film Tim Hill will be directing, it will be his ninth feature film.

Due to COVID-19, the film will no longer be released in theaters, but will be available in 2021 through VOD and streaming via CBS All Access. (UPDATE: The film hit Netflix UK today, November 5th.)
Where you watch

Where you watch Email alert

Yes, it is available and reported below. Use the alert button to get notified when higher quality versions are available.

Download and stream reports

Is there a The SpongeBob Movie: Sponge On The Run torrent? Yes. Reports are available below.
When will The SpongeBob Movie: Sponge On The Run be available on VOD? It's set for a November 05, 2020 release.

November 05, 2020
The.SpongeBob.Movie.Sponge.on.the.Run.2020.1080p.WEB.H264-STRONTiUM
Video and audio quality: 5/5 | Source: Official web stream

Submitted by: Mr. Meeseeks | Trust Rank level: Supreme Member
Format: Torrent | Site: RARBG
Video ID : 1 Format : AVC Format/Info : Advanced Video Codec Format profile : Main@L4 Format settings : CABAC / 3 Ref Frames Format settings, CABAC : Yes Format settings, Reference frames : 3 frames Codec ID : V_MPEG4/ISO/AVC Duration : 1 h 35 min Bit rate mode : Variable Bit rate : 7 052 kb/s Nominal bit rate : 7 500 kb/s Maximum bit rate : 11.2 Mb/s Width : 1 920 pixels Height : 1 080 pixels Display aspect ratio : 16:9 Frame rate mode : Constant Frame rate : 23.976 (24000/1001) FPS Color space : YUV Chroma subsampling : 4:2:0 Bit depth : 8 bits Scan type : Progressive Bits/(Pixel*Frame) : 0.142 Stream size : 4.70 GiB (88%) Writing library : x264 core 148 r2722 1b0121b Encoding settings : cabac=1 / ref=3 / deblock=1:0:0 / analyse=0x1:0x111 / me=umh / subme=10 / psy=1 / psy_rd=1.00:0.00 / mixed_ref=1 / me_range=24 / chroma_me=1 / trellis=2 / 8x8dct=0 / cqm=0 / deadzone=21,11 / fast_pskip=1 / chroma_qp_offset=-2 / threads=8 / lookahead_threads=1 / sliced_threads=0 / nr=0 / decimate=1 / interlaced=0 / bluray_compat=0 / stitchable=1 / constrained_intra=0 / bframes=2 / b_pyramid=0 / b_adapt=2 / b_bias=0 / direct=3 / weightb=1 / open_gop=0 / weightp=2 / keyint=250 / keyint_min=23 / scenecut=0 / intra_refresh=0 / rc_lookahead=48 / rc=2pass / mbtree=1 / bitrate=7500 / ratetol=1.0 / qcomp=0.50 / qpmin=6 / qpmax=51 / qpstep=4 / cplxblur=20.0 / qblur=0.5 / vbv_maxrate=11250 / vbv_bufsize=15000 / nal_hrd=vbr / filler=0 / ip_ratio=1.40 / aq=1:1.00 Language : English Default : Yes Forced : No Audio ID : 2 Format : E-AC-3 JOC Format/Info : Enhanced AC-3 with Joint Object Coding Commercial name : Dolby Digital Plus with Dolby Atmos Codec ID : A_EAC3 Duration : 1 h 35 min Bit rate mode : Constant Bit rate : 768 kb/s Channel(s) : 6 channels Channel layout : L R C LFE Ls Rs Sampling rate : 48.0 kHz Frame rate : 31.250 FPS (1536 SPF) Compression mode : Lossy Stream size : 524 MiB (10%) Language : English Service kind : Complete Main Default : Yes Forced : No Complexity index : 16 Number of dynamic objects : 15 Bed channel count : 1 channel Bed channel configuration : LFE

Videos Add media

The SpongeBob Movie: Sponge on the Run (2020) - Official Trailer - Paramount Pictures
The SpongeBob Movie: Sponge on the Run (2020) - Of...