South Park: Post COVID

South Park: Post COVID

Hot
Mr. MeeseeksMr. Meeseeks   January 06, 2022  
Add to list
South Park: Post COVID

Movie info

Title
Confirmed and upcoming movie titles only! Search before adding to avoid dupes.
South Park: Post COVID
Year
The year the movie is set to be released.
2021
Director
Trey Parker
Genre
Pick one or multiple movie genres.
Digital release
Official digital release date on services such as iTunes, Amazon, Netflix. It's the first known release date, without any country restriction. So if it's out on iTunes Russia first, this would be the digital release date.
November 25, 2021
Description
"Post COVID" is the first of many made-for-television films by South Park Studios produced for the Paramount+ streaming service.
Where you watch

Where you watch Email alert

Yes, it is available and reported below. Use the alert button to get notified when higher quality versions are available.

Download and stream reports

Is there a South Park: Post COVID torrent? Yes. Reports are available below.
When will South Park: Post COVID be available on VOD? It's set for a November 25, 2021 release.

January 06, 2022
South.Park.Post.Covid.2021.1080p.WEB.h264-RUMOUR
Video and audio quality: 5/5 | Source: Official web stream

Submitted by: Mr. Meeseeks | Trust Rank level: Supreme Member
Format: Torrent | Site: RARBG
Video ID : 1 Format : AVC Format/Info : Advanced Video Codec Format profile : High@L4 Format settings : CABAC / 4 Ref Frames Format settings, CABAC : Yes Format settings, Reference frames : 4 frames Codec ID : V_MPEG4/ISO/AVC Duration : 59 min 27 s Bit rate : 3 398 kb/s Width : 1 920 pixels Height : 1 080 pixels Display aspect ratio : 16:9 Frame rate mode : Constant Frame rate : 24.000 FPS Color space : YUV Chroma subsampling : 4:2:0 Bit depth : 8 bits Scan type : Progressive Bits/(Pixel*Frame) : 0.068 Stream size : 1.41 GiB (84%) Language : English Default : Yes Forced : No Color range : Limited Color primaries : BT.709 Transfer characteristics : BT.709 Matrix coefficients : BT.709 Audio ID : 2 Format : E-AC-3 Format/Info : Enhanced AC-3 Commercial name : Dolby Digital Plus Codec ID : A_EAC3 Duration : 59 min 27 s Bit rate mode : Constant Bit rate : 640 kb/s Channel(s) : 6 channels Channel layout : L R C LFE Ls Rs Sampling rate : 48.0 kHz Frame rate : 31.250 FPS (1536 SPF) Compression mode : Lossy Stream size : 272 MiB (16%) Language : English Service kind : Complete Main Default : Yes Forced : No Text ID : 3 Format : UTF-8 Codec ID : S_TEXT/UTF8 Codec ID/Info : UTF-8 Plain Text Duration : 59 min 21 s Bit rate : 101 b/s Count of elements : 1337 Stream size : 44.3 KiB (0%) Title : English Language : English Default : No Forced : No

Videos Add media

"South Park: Post Covid" Promo
"South Park: Post Covid" Promo