South of Heaven

South of Heaven

benyaminbenyamin   September 09, 2021  
Add to list
South of Heaven

Movie info

Title
Confirmed and upcoming movie titles only! Search before adding to avoid dupes.
South of Heaven
Year
The year the movie is set to be released.
2021
Director
Aharon Keshales
Genre
Pick one or multiple movie genres.
Digital release
Official digital release date on services such as iTunes, Amazon, Netflix. It's the first known release date, without any country restriction. So if it's out on iTunes Russia first, this would be the digital release date.
October 08, 2021
Description
South of Heaven is the upcoming crime thriller drama movie of Jason Sudeikis and Evangeline Lilly about a released convicted felon trying to help his childhood love who is now dying from cancer to have the best last year of her life.
Where you watch

Where you watch Email alert

Yes, it is available and reported below. Use the alert button to get notified when higher quality versions are available.

Download and stream reports

Is there a South of Heaven torrent? Yes. Reports are available below.
When will South of Heaven be available on VOD? It's set for a October 08, 2021 release.

October 08, 2021
South.of.Heaven.2021.1080p.WEBRip.DD5.1.x264-NOGRP
Video and audio quality: 5/5 | Source: Official web stream

Submitted by: Mr. Meeseeks | Trust Rank level: Supreme Member
Format: Torrent | Site: RARBG
Video ID : 1 Format : AVC Format/Info : Advanced Video Codec Format profile : High@L4 Format settings : CABAC / 5 Ref Frames Format settings, CABAC : Yes Format settings, Reference frames : 5 frames Codec ID : V_MPEG4/ISO/AVC Duration : 1 h 59 min Bit rate : 6 749 kb/s Width : 1 920 pixels Height : 816 pixels Display aspect ratio : 2.35:1 Frame rate mode : Constant Frame rate : 23.976 (24000/1001) FPS Color space : YUV Chroma subsampling : 4:2:0 Bit depth : 8 bits Scan type : Progressive Bits/(Pixel*Frame) : 0.180 Stream size : 5.65 GiB (95%) Default : Yes Forced : No Color range : Limited Color primaries : BT.709 Transfer characteristics : BT.709 Matrix coefficients : BT.709 Audio ID : 2 Format : AC-3 Format/Info : Audio Coding 3 Commercial name : Dolby Digital Codec ID : A_AC3 Duration : 1 h 59 min Bit rate mode : Constant Bit rate : 384 kb/s Channel(s) : 6 channels Channel layout : L R C LFE Ls Rs Sampling rate : 48.0 kHz Frame rate : 31.250 FPS (1536 SPF) Compression mode : Lossy Stream size : 329 MiB (5%) Title : English Language : English Service kind : Complete Main Default : No Forced : No

Videos Add media

SOUTH OF HEAVEN - Official Trailer
SOUTH OF HEAVEN - Official Trailer