Sniper: The White Raven

Sniper: The White Raven

Mr. MeeseeksMr. Meeseeks   June 10, 2022  
Add to list
Sniper: The White Raven

Movie info

Title
Confirmed and upcoming movie titles only! Search before adding to avoid dupes.
Sniper: The White Raven
Year
The year the movie is set to be released.
2022
Director
Marian Bushan
Genre
Pick one or multiple movie genres.
Cinema release
First cinema release date in any country.
May 13, 2022
Streaming
Official digital release date on services such as iTunes, Amazon, Netflix. It's the first known release date, without any country restriction. So if it's out on iTunes Russia first, this would be the digital release date.
July 01, 2022
Where you watch
Description
Starring Aldoshyn Pavlo.

Where you watch Email alert

The movie is online and reported below, Use the alert button to get notified when higher quality versions are available.

Download and stream reports

Is Sniper: The White Raven available online? Yes. Reports of pirated torrents and streams are available below.
When will Sniper: The White Raven be available on digital platforms like iTunes or Amazon? It's set for a July 01, 2022 release. This likely includes iTunes and Amazon unless it is an exclusive Netflix, or similar, release. Physical versions on Blu-Ray or DVD will likely follow.

July 27, 2022
Sniper.The.White.Raven.2022.UKRAINIAN.1080p.AMZN.WEBRip.DDP5.1.x264-NOGRP
Video and audio quality: 5/5 | Source: Official web stream

Submitted by: Mr. Meeseeks | Trust Rank level: Supreme Member
Format: Torrent | Site: RARBG
Video ID : 1 Format : AVC Format/Info : Advanced Video Codec Format profile : High@L4 Format settings : CABAC / 4 Ref Frames Format settings, CABAC : Yes Format settings, Reference frames : 4 frames Codec ID : V_MPEG4/ISO/AVC Duration : 1 h 51 min Bit rate mode : Constant Bit rate : 7 781 kb/s Nominal bit rate : 10 000 kb/s Width : 1 920 pixels Height : 800 pixels Display aspect ratio : 2.40:1 Frame rate mode : Constant Frame rate : 24.000 FPS Color space : YUV Chroma subsampling : 4:2:0 Bit depth : 8 bits Scan type : Progressive Bits/(Pixel*Frame) : 0.211 Stream size : 6.07 GiB (91%) Default : Yes Forced : No Color range : Limited Color primaries : BT.709 Transfer characteristics : BT.709 Matrix coefficients : BT.709 Audio ID : 2 Format : E-AC-3 Format/Info : Enhanced AC-3 Commercial name : Dolby Digital Plus Codec ID : A_EAC3 Duration : 1 h 51 min Bit rate mode : Constant Bit rate : 640 kb/s Channel(s) : 6 channels Channel layout : L R C LFE Ls Rs Sampling rate : 48.0 kHz Frame rate : 31.250 FPS (1536 SPF) Compression mode : Lossy Stream size : 511 MiB (7%) Language : Ukrainian Service kind : Complete Main Default : Yes Forced : No Text ID : 3 Format : UTF-8 Codec ID : S_TEXT/UTF8 Codec ID/Info : UTF-8 Plain Text Language : English Default : Yes Forced : Yes

Videos Add media

SNIPER: THE WHITE RAVEN (2022) Official Trailer | Well Go USA
SNIPER: THE WHITE RAVEN (2022) Official Trailer | ...