Sneakerella

Sneakerella

MavoyMavoy   January 22, 2022  
Add to list
Sneakerella

Movie info

Title
Confirmed and upcoming movie titles only! Search before adding to avoid dupes.
Sneakerella
Year
The year the movie is set to be released.
2022
Director
Elizabeth Allen Rosenbaum
Genre
Pick one or multiple movie genres.
Digital release
Official digital release date on services such as iTunes, Amazon, Netflix. It's the first known release date, without any country restriction. So if it's out on iTunes Russia first, this would be the digital release date.
May 13, 2022
Description
Starring Chosen Jacobs, Lexi Underwood, Devyn Nekoda, Bryan Terrell Clark, Kolton Stewart, Hayward Leach, Robyn Alomar, Yvonne Senat Jones, Juan Chioran, and John Salley.
Where you watch

Where you watch Email alert

Yes, it is available and reported below. Use the alert button to get notified when higher quality versions are available.

Download and stream reports

Is there a Sneakerella torrent? Yes. Reports are available below.
When will Sneakerella be available on VOD? It's set for a May 13, 2022 release.

May 23, 2022
Sneakerella.2022.1080p.DSNP.WEBRip.DDP5.1.Atmos.x264-FLUX
Video and audio quality: 5/5 | Source: Official web stream

Submitted by: Mr. Meeseeks | Trust Rank level: Supreme Member
Format: Torrent | Site: RARBG
Video ID : 1 Format : AVC Format/Info : Advanced Video Codec Format profile : High@L4 Format settings : CABAC / 4 Ref Frames Format settings, CABAC : Yes Format settings, Reference frames : 4 frames Codec ID : V_MPEG4/ISO/AVC Duration : 1 h 50 min Bit rate mode : Variable Bit rate : 6 358 kb/s Maximum bit rate : 12.7 Mb/s Width : 1 920 pixels Height : 1 080 pixels Display aspect ratio : 16:9 Frame rate mode : Constant Frame rate : 23.976 (24000/1001) FPS Color space : YUV Chroma subsampling : 4:2:0 Bit depth : 8 bits Scan type : Progressive Bits/(Pixel*Frame) : 0.128 Stream size : 4.92 GiB (89%) Default : No Forced : No Color range : Limited Color primaries : BT.709 Transfer characteristics : BT.709 Matrix coefficients : BT.709 Audio ID : 2 Format : E-AC-3 JOC Format/Info : Enhanced AC-3 with Joint Object Coding Commercial name : Dolby Digital Plus with Dolby Atmos Codec ID : A_EAC3 Duration : 1 h 50 min Bit rate mode : Constant Bit rate : 768 kb/s Channel(s) : 6 channels Channel layout : L R C LFE Ls Rs Sampling rate : 48.0 kHz Frame rate : 31.250 FPS (1536 SPF) Compression mode : Lossy Stream size : 609 MiB (11%) Language : English Service kind : Complete Main Default : No Forced : No Complexity index : 16 Number of dynamic objects : 15 Bed channel count : 1 channel Bed channel configuration : LFE

Videos Add media

Disney's Sneakerella - Official Trailer (2022) Chosen Jacobs, Lexi Underwood
Disney's Sneakerella - Official Trailer (2022) Cho...