Skin

Ivana 🌿Ivana 🌿   May 09, 2019  
Add to list
Skin

Movie info

TITLE
Confirmed and upcoming movie titles only! Search before adding to avoid dupes.
Skin
YEAR
The year the movie is set to be released.
2019
DIRECTOR
GENRE
Pick one or multiple movie genres.
CINEMA
First cinema release date in any country.
July 26, 2019
DESCRIPTION
Starring Jamie Bell, Danielle Macdonald, Daniel Henshall, Bill Camp, Mike Colter and Vera Farmiga.
WHERE YOU WATCH

Where you watch Email alert

The movie is online and reported below, Use the alert button to get notified when higher quality versions are available.

Reports

Is Skin available online? Yes. Reports of pirated torrents and streams are available below.
When will Skin be available on digital platforms like iTunes or Amazon? As of now, there's no release data announced. This includes iTunes, Amazon, Blu-Ray and DVD.

July 23, 2019
Skin.2018.1080p.WEB-DL.DD5.1.H264-FGT
Video and audio quality: 5/5 | Source: Official web stream

Submitted by: Mr. Meeseeks | Trust Rank level: Supreme Member
Format: Torrent | Site: RARBG
Video ID : 1 Format : AVC Format/Info : Advanced Video Codec Format profile : [email protected] Format settings : CABAC / 5 Ref Frames Format settings, CABAC : Yes Format settings, Reference frames : 5 frames Codec ID : V_MPEG4/ISO/AVC Duration : 1 h 58 min Bit rate : 4 553 kb/s Width : 1 920 pixels Height : 802 pixels Display aspect ratio : 2.40:1 Frame rate mode : Constant Frame rate : 23.976 FPS Color space : YUV Chroma subsampling : 4:2:0 Bit depth : 8 bits Scan type : Progressive Bits/(Pixel*Frame) : 0.123 Stream size : 3.76 GiB (92%) Title : Skin.2018.1080p.WEB-DL.DD5.1.H264-FGT Language : English Default : Yes Forced : No Color range : Limited Color primaries : BT.709 Transfer characteristics : BT.709 Matrix coefficients : BT.709 Audio ID : 2 Format : AC-3 Format/Info : Audio Coding 3 Commercial name : Dolby Digital Codec ID : A_AC3 Duration : 1 h 58 min Bit rate mode : Constant Bit rate : 384 kb/s Channel(s) : 6 channels Channel layout : L R C LFE Ls Rs Sampling rate : 48.0 kHz Frame rate : 31.250 FPS (1536 SPF) Bit depth : 16 bits Compression mode : Lossy Stream size : 325 MiB (8%) Title : Skin.2018.1080p.WEB-DL.DD5.1.H264-FGT Language : English Service kind : Complete Main Default : Yes Forced : No Text #1 ID : 3 Format : UTF-8 Codec ID : S_TEXT/UTF8 Codec ID/Info : UTF-8 Plain Text Duration : 1 h 52 min Bit rate : 54 b/s Count of elements : 1417 Stream size : 44.7 KiB (0%) Language : English Default : Yes Forced : No Text #2 ID : 4 Format : UTF-8 Codec ID : S_TEXT/UTF8 Codec ID/Info : UTF-8 Plain Text Duration : 1 h 57 min Bit rate : 59 b/s Count of elements : 1702 Stream size : 50.8 KiB (0%) Language : English Default : No Forced : No

Videos Add media

SKIN | Official Trailer HD | A24
SKIN | Official Trailer HD | A24