Saint Frances

Saint Frances

Hot
Mr. MeeseeksMr. Meeseeks   January 16, 2020  
Add to list
Saint Frances

Movie info

Title
Confirmed and upcoming movie titles only! Search before adding to avoid dupes.
Saint Frances
Year
The year the movie is set to be released.
2020
Director
Alex Thompson
Genre
Pick one or multiple movie genres.
Cinema release
First cinema release date in any country.
February 28, 2020
Description
Starring Kelly O'Sullivan, Ramona Edith-Williams, Jim True-Frost, Francis Guinan, Lily Mojekwu, Mary Beth Fisher, and Charin Alvarez.
Where you watch

Where you watch Email alert

Yes, it is available and reported below. Use the alert button to get notified when higher quality versions are available.

Download and stream reports

Is there a Saint Frances torrent? Yes. Reports are available below.
When will Saint Frances be available on digital platforms like iTunes, Amazon or Apple+? As of now, there's no release date announced. This includes iTunes, Amazon, Blu-Ray and DVD.

May 05, 2020
Saint.Frances.2019.1080p.AMZN.WEBRip.DD5.1.x264-NTG
Video and audio quality: 5/5 | Source: Official web stream

Submitted by: Mr. Meeseeks | Trust Rank level: Supreme Member
Format: Torrent | Site: RARBG
Video ID : 1 Format : AVC Format/Info : Advanced Video Codec Format profile : High@L4 Format settings : CABAC / 4 Ref Frames Format settings, CABAC : Yes Format settings, Reference frames : 4 frames Codec ID : V_MPEG4/ISO/AVC Duration : 1 h 40 min Bit rate mode : Constant Bit rate : 10 000 kb/s Width : 1 920 pixels Height : 1 080 pixels Display aspect ratio : 16:9 Frame rate mode : Constant Frame rate : 23.976 (24000/1001) FPS Color space : YUV Chroma subsampling : 4:2:0 Bit depth : 8 bits Scan type : Progressive Bits/(Pixel*Frame) : 0.201 Stream size : 6.73 GiB (96%) Default : Yes Forced : No Color range : Limited Color primaries : BT.709 Transfer characteristics : BT.709 Matrix coefficients : BT.709 Audio ID : 2 Format : AC-3 Format/Info : Audio Coding 3 Commercial name : Dolby Digital Codec ID : A_AC3 Duration : 1 h 40 min Bit rate mode : Constant Bit rate : 384 kb/s Channel(s) : 6 channels Channel layout : L R C LFE Ls Rs Sampling rate : 48.0 kHz Frame rate : 31.250 FPS (1536 SPF) Bit depth : 16 bits Compression mode : Lossy Stream size : 277 MiB (4%) Language : English Service kind : Complete Main Default : Yes Forced : No

Videos Add media

Saint Frances - Official Trailer - Oscilloscope Laboratories HD
Saint Frances - Official Trailer - Oscilloscope La...