S.M.A.R.T. Chase

S.M.A.R.T. Chase

Mr. MeeseeksMr. Meeseeks   August 19, 2018  
News (0)
Add to list
S.M.A.R.T. Chase

Movie info

TITLE
Confirmed and upcoming movie titles only! Search before adding to avoid dupes.
YEAR
The year the movie is set to be released.
2018
GENRE
Pick one or multiple movie genres.
CINEMA
First cinema release date in any country.
August 31, 2018
DESCRIPTION
Orlando Bloom stars as a a security agent who gets ambushed while on the job in China.
WHERE YOU WATCH

Where you watch Email alert

The movie is online and reported below, Use the alert button to get notified when higher quality versions are available.

Reports

September 01, 2018
S M A R T Chase 2017 720p WEB-DL x264 AAC-eSc
Video and audio quality: 5/5 | Source: Official web stream

Submitted by: Mr. Meeseeks | Trust Rank level: Legend Member
Format: Torrent | Site: Scene
General Format : MPEG-4 Format profile : Base Media / Version 2 Codec ID : mp42 (isom/iso2/avc1/mp41) File size : 831 MiB Duration : 1 h 34 min Overall bit rate mode : Variable Overall bit rate : 1 234 kb/s Encoded date : UTC 2018-09-01 00:36:15 Tagged date : UTC 2018-09-01 01:06:23 Video ID : 1 Format : AVC Format/Info : Advanced Video Codec Format profile : [email protected] Format settings : CABAC / 4 Ref Frames Format settings, CABAC : Yes Format settings, RefFrames : 4 frames Codec ID : avc1 Codec ID/Info : Advanced Video Coding Duration : 1 h 34 min Bit rate : 1 100 kb/s Width : 1 280 pixels Height : 532 pixels Display aspect ratio : 2.40:1 Original display aspect ratio : 2.40:1 Frame rate mode : Variable Frame rate : 23.976 FPS Minimum frame rate : 12.048 FPS Maximum frame rate : 25.641 FPS Color space : YUV Chroma subsampling : 4:2:0 Bit depth : 8 bits Scan type : Progressive Bits/(Pixel*Frame) : 0.067 Stream size : 740 MiB (89%) Writing library : x264 core 142 r2479 dd79a61 Language : English Encoded date : UTC 2018-09-01 00:36:15 Tagged date : UTC 2018-09-01 00:36:15 Color range : Limited Color primaries : BT.709 Transfer characteristics : BT.709 Matrix coefficients : BT.709 Menus : 4 Audio ID : 2 Format : AAC Format/Info : Advanced Audio Codec Format profile : LC Codec ID : mp4a-40-2 Duration : 1 h 34 min Bit rate mode : Variable Bit rate : 128 kb/s Channel(s) : 2 channels Channel positions : Front: L R Sampling rate : 48.0 kHz Frame rate : 46.875 FPS (1024 SPF) Compression mode : Lossy Stream size : 86.2 MiB (10%) Title : Stereo / Stereo Language : English Default : Yes Alternate group : 1 Encoded date : UTC 2018-09-01 00:36:15 Tagged date : UTC 2018-09-01 00:36:15 Menu ID : 4 Codec ID : text Duration : 1 h 34 min Encoded date : UTC 2018-09-01 01:06:23 Tagged date : UTC 2018-09-01 01:06:23 Menu For : 1 00:00:00.000 : 1 00:04:24.056 : 2 00:10:54.154 : 3 00:17:47.234 : 4 00:25:41.333 : 5 00:35:31.882 : 6 00:42:51.196 : 7 00:47:27.222 : 8 00:57:24.236 : 9 01:07:25.671 : 10 01:17:03.332 : 11 01:27:17.112 : 12 Bit rate mode : VBR

Videos Add media

S.M.A.R.T. Chase Trailer #1 (2018) | Movieclips Indie
S.M.A.R.T. Chase Trailer #1 (2018) | Movieclips In...

Movie News

There are no member news items for this movie.
To write a comment please register or