Run

Hot
Mr. MeeseeksMr. Meeseeks   February 20, 2020  
Add to list
Run

Movie info

Title
Confirmed and upcoming movie titles only! Search before adding to avoid dupes.
Run
Year
The year the movie is set to be released.
2020
Genre
Pick one or multiple movie genres.
Digital release
Official digital release date on services such as iTunes, Amazon, Netflix. It's the first known release date, without any country restriction. So if it's out on iTunes Russia first, this would be the digital release date.
November 20, 2020
Description
After the breakout success of his directorial debut "Searching" in 2018, Aneesh Chaganty returns with his second feature film "Run", starring Sarah Paulson. The supporting cast includes Kiera Allen, Pat Healy, and Erik Athavale.

As there's been a lot of movies titled The Run, we're sorting this as "The Run 2020". However, the film has been delayed indefinitely due to COVID-19.

Update: "Run" is the latest 2020 film to skip its theatrical run, as it will premiere November 20th exclusively on Hulu.
Where you watch

Where you watch Email alert

Yes, it is available and reported below. Use the alert button to get notified when higher quality versions are available.

Download and stream reports

Can I download or stream Run? Yes. Reports of pirated torrents and streams are available below.
When will Run be available on digital platforms like iTunes or Amazon? It's set for a November 20, 2020 release. This likely includes iTunes and Amazon unless it is an exclusive Netflix, or similar, release. Physical versions on Blu-Ray or DVD will likely follow.

November 20, 2020
Run.2020.1080p.HULU.WEBRip.DDP5.1.x264-NTG
Video and audio quality: 5/5 | Source: Official web stream

Submitted by: Mr. Meeseeks | Trust Rank level: Supreme Member
Format: Torrent | Site: RARBG
Video ID : 1 Format : AVC Format/Info : Advanced Video Codec Format profile : High@L4 Format settings : CABAC / 4 Ref Frames Format settings, CABAC : Yes Format settings, Reference frames : 4 frames Codec ID : V_MPEG4/ISO/AVC Duration : 1 h 29 min Bit rate : 3 507 kb/s Width : 1 920 pixels Height : 1 080 pixels Display aspect ratio : 16:9 Frame rate mode : Constant Frame rate : 23.976 (24000/1001) FPS Color space : YUV Chroma subsampling : 4:2:0 Bit depth : 8 bits Scan type : Progressive Bits/(Pixel*Frame) : 0.071 Stream size : 2.19 GiB (93%) Default : Yes Forced : No Audio ID : 2 Format : E-AC-3 Format/Info : Enhanced AC-3 Commercial name : Dolby Digital Plus Codec ID : A_EAC3 Duration : 1 h 29 min Bit rate mode : Constant Bit rate : 256 kb/s Channel(s) : 6 channels Channel layout : L R C LFE Ls Rs Sampling rate : 48.0 kHz Frame rate : 31.250 FPS (1536 SPF) Compression mode : Lossy Stream size : 164 MiB (7%) Language : English Service kind : Complete Main Default : Yes Forced : No Text #1 ID : 3 Format : UTF-8 Codec ID : S_TEXT/UTF8 Codec ID/Info : UTF-8 Plain Text Duration : 1 h 25 min Bit rate : 35 b/s Count of elements : 834 Stream size : 22.0 KiB (0%) Title : SDH Language : English Default : No Forced : No Text #2 ID : 4 Format : UTF-8 Codec ID : S_TEXT/UTF8 Codec ID/Info : UTF-8 Plain Text Duration : 1 h 25 min Bit rate : 35 b/s Count of elements : 890 Stream size : 22.4 KiB (0%) Language : Spanish Default : No Forced : No

Videos Add media

RUN - Trailer (Official) • A Hulu Original
RUN - Trailer (Official) • A Hulu Original
Run (2020 Movie) Official Trailer – Sarah Paulson, Kiera Allen
Run (2020 Movie) Official Trailer – Sarah Paulso...