Rumble

Rumble

Hot
Mr. MeeseeksMr. Meeseeks   February 26, 2020  
Add to list
Rumble

Movie info

Title
Confirmed and upcoming movie titles only! Search before adding to avoid dupes.
Rumble
Year
The year the movie is set to be released.
2021
Director
Hamish Grieve
Genre
Pick one or multiple movie genres.
Digital release
Official digital release date on services such as iTunes, Amazon, Netflix. It's the first known release date, without any country restriction. So if it's out on iTunes Russia first, this would be the digital release date.
December 15, 2021
Description
"Rumble" is a new computer-animated film from Paramount, which takes place in a fantasy world of monsters. The story is heavily influenced by professional wrestling, following a teenage protagonist with dreams of becoming the next champion of "Monster Wrestling". The screenplay was penned by Etan Cohen, and Matt Lieberman. The voice cast stars Geraldine Viswanathan, Terry Crews, Will Arnett, and real-life wrestling superstars Rebecca Quin (Becky Lynch), and Joseph Anoa'I (Roman Reigns).
Where you watch

Where you watch Email alert

Yes, it is available and reported below. Use the alert button to get notified when higher quality versions are available.

Download and stream reports

Is there a Rumble torrent? Yes. Reports are available below.
When will Rumble be available on VOD? It's set for a December 15, 2021 release.

January 07, 2022
Rumble.2021.1080p.WEB.H264-NAISU
Video and audio quality: 5/5 | Source: Official web stream

Submitted by: Mr. Meeseeks | Trust Rank level: Supreme Member
Format: Torrent | Site: RARBG
Video ID : 1 Format : AVC Format/Info : Advanced Video Codec Format profile : High@L4 Format settings : CABAC / 4 Ref Frames Format settings, CABAC : Yes Format settings, Reference frames : 4 frames Codec ID : V_MPEG4/ISO/AVC Duration : 1 h 34 min Bit rate mode : Constant Bit rate : 7 746 kb/s Nominal bit rate : 10 000 kb/s Width : 1 920 pixels Height : 800 pixels Display aspect ratio : 2.40:1 Frame rate mode : Constant Frame rate : 24.000 FPS Color space : YUV Chroma subsampling : 4:2:0 Bit depth : 8 bits Scan type : Progressive Bits/(Pixel*Frame) : 0.210 Stream size : 5.13 GiB (91%) Default : Yes Forced : No Color range : Limited Color primaries : BT.709 Transfer characteristics : BT.709 Matrix coefficients : BT.709 Audio ID : 2 Format : E-AC-3 Format/Info : Enhanced AC-3 Commercial name : Dolby Digital Plus Codec ID : A_EAC3 Duration : 1 h 34 min Bit rate mode : Constant Bit rate : 640 kb/s Channel(s) : 6 channels Channel layout : L R C LFE Ls Rs Sampling rate : 48.0 kHz Frame rate : 31.250 FPS (1536 SPF) Compression mode : Lossy Stream size : 434 MiB (7%) Language : English Service kind : Complete Main Default : Yes Forced : No Text ID : 3 Format : UTF-8 Codec ID : S_TEXT/UTF8 Codec ID/Info : UTF-8 Plain Text Title : English Language : English Default : No Forced : No

Videos Add media

Rumble (2021) - Official Trailer - Paramount Pictures
Rumble (2021) - Official Trailer - Paramount Pictu...