Roman J. Israel, Esq.

Roman J. Israel, Esq.

Hot
Ramona FlowersRamona Flowers   September 26, 2017  
News (0)
Add to list
Roman J. Israel, Esq.

Movie info

TITLE
Confirmed and upcoming movie titles only! Search before adding to avoid dupes.
YEAR
The year the movie is set to be released.
2017
DIRECTOR
GENRE
Pick one or multiple movie genres.
CINEMA
First cinema release date in any country.
November 03, 2017
DESCRIPTION
"Roman J. Israel" is the second feature film directed by American screenwriter Dan Gilroy, his debut 'Nightcrawler' earned him his first Academy Award nomination as well as his first Satellite Award. Denzel Washington stars as the titular attorney.
WHERE YOU WATCH

Where you watch Email alert

The movie is online and reported below, Use the alert button to get notified when higher quality versions are available.

Reports

April 07, 2018
Roman.J.Israel.Esq.2017.1080p.BluRay.REMUX.AVC.DTS-HD.MA.5.1-FGT
Video and audio quality: 5/5 | Source: BluRay

Submitted by: Mr. Meeseeks | Trust Rank level: Legend Member
Format: Torrent | Site: RARBG
Video ID : 1 Format : AVC Format/Info : Advanced Video Codec Format profile : [email protected] Format settings : CABAC / 2 Ref Frames Format settings, CABAC : Yes Format settings, ReFrames : 2 frames Format settings, GOP : M=1, N=10 Codec ID : V_MPEG4/ISO/AVC Duration : 2 h 2 min Bit rate mode : Variable Bit rate : 24.9 Mb/s Width : 1 920 pixels Height : 1 080 pixels Display aspect ratio : 16:9 Frame rate mode : Constant Frame rate : 23.976 (24000/1001) FPS Color space : YUV Chroma subsampling : 4:2:0 Bit depth : 8 bits Scan type : Progressive Bits/(Pixel*Frame) : 0.502 Stream size : 21.3 GiB (72%) Title : Roman.J.Israel.Esq.2017.1080p.BluRay.REMUX.AVC.DTS-HD.MA.5.1-FGT Language : English Default : No Forced : No Audio #1 ID : 2 Format : DTS Format/Info : Digital Theater Systems Format profile : MA / Core Codec ID : A_DTS Duration : 2 h 2 min Bit rate mode : Variable / Constant Bit rate : 3 673 kb/s / 1 509 kb/s Channel(s) : 6 channels Channel positions : Front: L C R, Side: L R, LFE Sampling rate : 48.0 kHz Frame rate : 93.750 FPS (512 SPF) Bit depth : 24 bits Compression mode : Lossless / Lossy Stream size : 3.14 GiB (11%) Title : Roman.J.Israel.Esq.2017.1080p.BluRay.REMUX.AVC.DTS-HD.MA.5.1-FGT Language : English Default : Yes Forced : No Audio #2 ID : 3 Format : DTS Format/Info : Digital Theater Systems Codec ID : A_DTS Duration : 2 h 2 min Bit rate mode : Constant Bit rate : 1 509 kb/s Channel(s) : 6 channels Channel positions : Front: L C R, Side: L R, LFE Sampling rate : 48.0 kHz Frame rate : 93.750 FPS (512 SPF) Bit depth : 24 bits Compression mode : Lossy Stream size : 1.29 GiB (4%) Title : Roman.J.Israel.Esq.2017.1080p.BluRay.REMUX.AVC.DTS-HD.MA.5.1-FGT Language : English Default : No Forced : No Audio #3 ID : 4 Format : AC-3 Format/Info : Audio Coding 3 Codec ID : A_AC3 Duration : 2 h 2 min Bit rate mode : Constant Bit rate : 640 kb/s Channel(s) : 6 channels Channel positions : Front: L C R, Side: L R, LFE Sampling rate : 48.0 kHz Frame rate : 31.250 FPS (1536 SPF) Bit depth : 16 bits Compression mode : Lossy Stream size : 560 MiB (2%) Title : Roman.J.Israel.Esq.2017.1080p.BluRay.REMUX.AVC.DTS-HD.MA.5.1-FGT Language : English Service kind : Complete Main Default : No Forced : No Audio #4 ID : 5 Format : DTS Format/Info : Digital Theater Systems Format profile : MA / Core Codec ID : A_DTS Duration : 2 h 2 min Bit rate mode : Variable / Constant Bit rate : 2 189 kb/s / 1 509 kb/s Channel(s) : 6 channels Channel positions : Front: L C R, Side: L R, LFE Sampling rate : 48.0 kHz Frame rate : 93.750 FPS (512 SPF) Bit depth : 16 bits Compression mode : Lossless / Lossy Stream size : 1.87 GiB (6%) Title : Roman.J.Israel.Esq.2017.1080p.BluRay.REMUX.AVC.DTS-HD.MA.5.1-FGT Language : French Default : No Forced : No Audio #5 ID : 6 Format : DTS Format/Info : Digital Theater Systems Codec ID : A_DTS Duration : 2 h 2 min Bit rate mode : Constant Bit rate : 1 509 kb/s Channel(s) : 6 channels Channel positions : Front: L C R, Side: L R, LFE Sampling rate : 48.0 kHz Frame rate : 93.750 FPS (512 SPF) Bit depth : 16 bits Compression mode : Lossy Stream size : 1.29 GiB (4%) Title : Roman.J.Israel.Esq.2017.1080p.BluRay.REMUX.AVC.DTS-HD.MA.5.1-FGT Language : French Default : No Forced : No Text #1 ID : 7 Format : PGS Muxing mode : zlib Codec ID : S_HDMV/PGS Codec ID/Info : Picture based subtitle format used on BDs/HD-DVDs Duration : 1 h 56 min Bit rate : 46.0 kb/s Count of elements : 3642 Stream size : 38.4 MiB (0%) Title : English-PGS Language : English Default : No Forced : No Text #2 ID : 8 Format : PGS Muxing mode : zlib Codec ID : S_HDMV/PGS Codec ID/Info : Picture based subtitle format used on BDs/HD-DVDs Duration : 1 h 52 min Bit rate : 41.8 kb/s Count of elements : 3092 Stream size : 33.7 MiB (0%) Title : English-SDH-PGS Language : English Default : No Forced : No Text #3 ID : 9 Format : PGS Muxing mode : zlib Codec ID : S_HDMV/PGS Codec ID/Info : Picture based subtitle format used on BDs/HD-DVDs Duration : 2 h 1 min Bit rate : 36.5 kb/s Count of elements : 3156 Stream size : 31.6 MiB (0%) Title : Chinese-PGS Language : Chinese Default : No Forced : No Text #4 ID : 10 Format : PGS Muxing mode : zlib Codec ID : S_HDMV/PGS Codec ID/Info : Picture based subtitle format used on BDs/HD-DVDs Duration : 2 h 1 min Bit rate : 32.2 kb/s Count of elements : 3156 Stream size : 27.9 MiB (0%) Title : Chinese-PGS Language : Chinese Default : No Forced : No Text #5 ID : 11 Format : PGS Muxing mode : zlib Codec ID : S_HDMV/PGS Codec ID/Info : Picture based subtitle format used on BDs/HD-DVDs Duration : 2 h 1 min Bit rate : 32.2 kb/s Count of elements : 3034 Stream size : 27.9 MiB (0%) Title : French-PGS Language : French Default : No Forced : No Text #6 ID : 12 Format : PGS Muxing mode : zlib Codec ID : S_HDMV/PGS Codec ID/Info : Picture based subtitle format used on BDs/HD-DVDs Duration : 2 h 1 min Bit rate : 30.6 kb/s Count of elements : 3160 Stream size : 26.6 MiB (0%) Title : Korean-PGS Language : Korean Default : No Forced : No Text #7 ID : 13 Format : PGS Muxing mode : zlib Codec ID : S_HDMV/PGS Codec ID/Info : Picture based subtitle format used on BDs/HD-DVDs Duration : 2 h 1 min Bit rate : 35.9 kb/s Count of elements : 2992 Stream size : 31.1 MiB (0%) Title : Spanish-PGS Language : Spanish Default : No Forced : No Text #8 ID : 14 Format : PGS Muxing mode : zlib Codec ID : S_HDMV/PGS Codec ID/Info : Picture based subtitle format used on BDs/HD-DVDs Duration : 2 h 1 min Bit rate : 36.8 kb/s Count of elements : 3156 Stream size : 31.9 MiB (0%) Title : Thai-PGS Language : Thai Default : No Forced : No Text #9 ID : 15 Format : PGS Muxing mode : zlib Codec ID : S_HDMV/PGS Codec ID/Info : Picture based subtitle format used on BDs/HD-DVDs Duration : 1 h 59 min Bit rate : 188 b/s Count of elements : 14 Stream size : 165 KiB (0%) Title : French-PGS Language : French Default : No Forced : No Text #10 ID : 16 Format : PGS Muxing mode : zlib Codec ID : S_HDMV/PGS Codec ID/Info : Picture based subtitle format used on BDs/HD-DVDs Duration : 1 h 59 min Bit rate : 188 b/s Count of elements : 14 Stream size : 165 KiB (0%) Title : French-PGS Language : French Default : No Forced : No
January 26, 2018
Roman.J.Israel.Esq.2018.HDRip.XviD.AC3-EVO
Video and audio quality: 5/5 | Source: Official web stream

Submitted by: Mr. Meeseeks | Trust Rank level: Legend Member
Format: Torrent | Site: ExtraTorrent
Source: iTunes
December 11, 2017
Roman J Israel, Esq 2017 Movies HD TS x264 Clean Audio New +Samp
Video and audio quality: 1/5 | Source: Camera with line audio

Submitted by: Mr. Meeseeks | Trust Rank level: Legend Member
Format: Torrent | Site: ExtraTorrent
I would wait for a better copy.

Videos Add media

ROMAN J. ISRAEL, ESQ. - Official Trailer (HD)
ROMAN J. ISRAEL, ESQ. - Official Trailer (HD)

Movie News

There are no member news items for this movie.
To write a comment please register or