Resistance

Resistance

Hot
Mr. MeeseeksMr. Meeseeks   March 04, 2020  
Add to list
Resistance

Movie info

Title
Confirmed and upcoming movie titles only! Search before adding to avoid dupes.
Resistance
Year
The year the movie is set to be released.
2020
Genre
Pick one or multiple movie genres.
Digital release
Official digital release date on services such as iTunes, Amazon, Netflix. It's the first known release date, without any country restriction. So if it's out on iTunes Russia first, this would be the digital release date.
March 27, 2020
Description
Starring Jesse Eisenberg, Edgar Ramírez, Clémence Poésy, Bella Ramsey, Matthias Schweighöfer, Géza Röhrig, Karl Markovics, Félix Moati, Alicia von Rittberg, and Vica Kerekes.
Where you watch

Where you watch Email alert

Yes, it is available and reported below. Use the alert button to get notified when higher quality versions are available.

Download and stream reports

Is there a Resistance torrent? Yes. Reports are available below.
When will Resistance be available on VOD? It's set for a March 27, 2020 release.

July 29, 2020
Resistance.2020.1080p.BluRay.REMUX.AVC.DTS-HD.MA.5.1-FGT
Video and audio quality: 5/5 | Source: BluRay

Submitted by: Mr. Meeseeks | Trust Rank level: Supreme Member
Format: Torrent | Site: RARBG
Video ID : 1 ID in the original source medium : 4113 (0x1011) Format : AVC Format/Info : Advanced Video Codec Format profile : High@L4.1 Format settings : CABAC / 4 Ref Frames Format settings, CABAC : Yes Format settings, Reference frames : 4 frames Codec ID : V_MPEG4/ISO/AVC Duration : 2 h 1 min Bit rate mode : Constant Bit rate : 33.8 Mb/s Nominal bit rate : 36.0 Mb/s Width : 1 920 pixels Height : 1 080 pixels Display aspect ratio : 16:9 Frame rate mode : Constant Frame rate : 23.976 (24000/1001) FPS Color space : YUV Chroma subsampling : 4:2:0 Bit depth : 8 bits Scan type : Progressive Bits/(Pixel*Frame) : 0.680 Stream size : 28.7 GiB (85%) Title : Resistance.2020.1080p.BluRay.REMUX.AVC.DTS-HD.MA.5.1-FGT Language : English Default : No Forced : No Original source medium : Blu-ray Audio #1 ID : 2 ID in the original source medium : 4352 (0x1100) Format : DTS XLL Format/Info : Digital Theater Systems Commercial name : DTS-HD Master Audio Codec ID : A_DTS Duration : 2 h 1 min Bit rate mode : Variable Bit rate : 2 612 kb/s Channel(s) : 6 channels Channel layout : C L R Ls Rs LFE Sampling rate : 48.0 kHz Frame rate : 93.750 FPS (512 SPF) Bit depth : 24 bits Compression mode : Lossless Stream size : 2.21 GiB (7%) Title : Resistance.2020.1080p.BluRay.REMUX.AVC.DTS-HD.MA.5.1-FGT Language : English Default : Yes Forced : No Original source medium : Blu-ray Audio #2 ID : 3 ID in the original source medium : 4353 (0x1101) Format : DTS XLL Format/Info : Digital Theater Systems Commercial name : DTS-HD Master Audio Codec ID : A_DTS Duration : 2 h 1 min Bit rate mode : Variable Bit rate : 1 618 kb/s Channel(s) : 2 channels Channel layout : L R Sampling rate : 48.0 kHz Frame rate : 93.750 FPS (512 SPF) Bit depth : 24 bits Compression mode : Lossless Stream size : 1.37 GiB (4%) Title : Resistance.2020.1080p.BluRay.REMUX.AVC.DTS-HD.MA.5.1-FGT Language : English Default : No Forced : No Original source medium : Blu-ray Audio #3 ID : 4 ID in the original source medium : 4354 (0x1102) Format : DTS XLL Format/Info : Digital Theater Systems Commercial name : DTS-HD Master Audio Codec ID : A_DTS Duration : 2 h 1 min Bit rate mode : Variable Bit rate : 1 633 kb/s Channel(s) : 2 channels Channel layout : L R Sampling rate : 48.0 kHz Frame rate : 93.750 FPS (512 SPF) Bit depth : 24 bits Compression mode : Lossless Stream size : 1.38 GiB (4%) Title : Resistance.2020.1080p.BluRay.REMUX.AVC.DTS-HD.MA.5.1-FGT Language : English Default : No Forced : No Original source medium : Blu-ray Text #1 ID : 5 Format : UTF-8 Codec ID : S_TEXT/UTF8 Codec ID/Info : UTF-8 Plain Text Duration : 1 h 51 min Bit rate : 32 b/s Count of elements : 996 Stream size : 26.8 KiB (0%) Title : English-SRT Language : English Default : Yes Forced : No
March 27, 2020
Resistance.2020.1080p.WEB-DL.H264.AC3-EVO
Video and audio quality: 5/5 | Source: Official web stream

Submitted by: Mavoy | Trust Rank level: Hero member
Format: Torrent | Site: 1337x
[Video Bitrate]:.............: 4916kb/s [Duration]:.............: 2 h 1 min [Video Codec]:.............: AVC [Resolution]:.............: 1920x800 px [Aspect Ratio]:.............: 2.40:1 [Audio Codec]:.............: AC-3 [Audio Bitrate]:.............: 384kb/s [Audio Channels]:.............: 5.1ch [Audio Language]:.............: English

Videos Add media

RESISTANCE - Official Trailer I HD I IFC Films
RESISTANCE - Official Trailer I HD I IFC Films