Red Sparrow

Red Sparrow

Hot
MojibMojib   August 15, 2017  
Add to list
Red Sparrow
Red Sparrow poster

Movie info

TITLE
Confirmed and upcoming movie titles only! Search before adding to avoid dupes.
Red Sparrow
YEAR
The year the movie is set to be released.
2018
GENRE
Pick one or multiple movie genres.
CINEMA
First cinema release date in any country.
March 02, 2018
DESCRIPTION
Directed by Francis Lawrence and stars Jennifer Lawrence as Dominika Egorova, a Russian spy who falls in love with an american CIA agent.
WHERE YOU WATCH

Where you watch Email alert

The movie is online and reported below, Use the alert button to get notified when higher quality versions are available.

Reports

Is Red Sparrow available online? Yes. Reports of pirated torrents and streams are available below.
When will Red Sparrow be available on digital platforms like iTunes or Amazon? As of now, there's no release data announced. This includes iTunes, Amazon, Blu-Ray and DVD.

May 08, 2018
Red.Sparrow.2018.720p.BluRay.x264-DRONES
Video and audio quality: 5/5 | Source: BluRay

Submitted by: Mr. Meeseeks | Trust Rank level: Supreme Member
Format: Torrent | Site: RARBG
Video ID : 1 Format : AVC Format/Info : Advanced Video Codec Format profile : [email protected] Format settings : CABAC / 5 Ref Frames Format settings, CABAC : Yes Format settings, RefFrames : 5 frames Codec ID : V_MPEG4/ISO/AVC Duration : 2 h 20 min Bit rate : 5 184 kb/s Width : 1 280 pixels Height : 536 pixels Display aspect ratio : 2.40:1 Frame rate mode : Constant Frame rate : 23.976 (24000/1001) FPS Color space : YUV Chroma subsampling : 4:2:0 Bit depth : 8 bits Scan type : Progressive Bits/(Pixel*Frame) : 0.315 Stream size : 5.08 GiB (77%) Writing library : x264 core 155 r2901 7d0ff22 Language : English Default : Yes Forced : No Audio ID : 2 Format : DTS Format/Info : Digital Theater Systems Format profile : ES Matrix / Core Mode : 16 Format settings, Endianness : Big Codec ID : A_DTS Duration : 2 h 20 min Bit rate mode : Constant Bit rate : 1 509 kb/s Channel(s) : 7 channels / 6 channels Channel positions : Front: L C R, Side: L R, Back: C, LFE / Front: L C R, Side: L R, LFE Sampling rate : 48.0 kHz Frame rate : 93.750 FPS (512 SPF) Bit depth : 24 bits Compression mode : Lossy Stream size : 1.48 GiB (23%) Language : English Default : Yes Forced : No Text ID : 3 Format : UTF-8 Codec ID : S_TEXT/UTF8 Codec ID/Info : UTF-8 Plain Text Duration : 6 s 173 ms Bit rate : 130 b/s Count of elements : 2 Stream size : 101 Bytes (0%) Title : English Forced Language : English Default : Yes Forced : Yes
April 15, 2018
Red.Sparrow.2018.1080p.HC.HDRip.X264.AC3-EVO
Video and audio quality: 4/5 | Source: Foreign web stream

Submitted by: Mr. Meeseeks | Trust Rank level: Supreme Member
Format: Torrent | Site: 1337x
ViDEO: 3700 Kbps ([email protected]) RESOLUTiON: 1920x800 RUNTiME: 2h 15m 43s SUBTiTLES: Korean (Hardcoded) AUDiO: 192 Kbps AC3 2.0 LANGUAGE: ENGLiSH ENCODER: DdHD
March 05, 2018
Red Sparrow 2018 HDCAM ENG X264 HQMic-BABY
Video and audio quality: 1/5 | Source: Camera

Submitted by: Mr. Meeseeks | Trust Rank level: Supreme Member
Format: Torrent | Site: ExtraTorrent
Blurry visual

Videos Add media

Red Sparrow Trailer
Red Sparrow Trailer