Red Joan

Red Joan

Mr. MeeseeksMr. Meeseeks   February 19, 2018  
Add to list
Red Joan

Movie info

TITLE
Confirmed and upcoming movie titles only! Search before adding to avoid dupes.
Red Joan
YEAR
The year the movie is set to be released.
2019
DIRECTOR
GENRE
Pick one or multiple movie genres.
CINEMA
First cinema release date in any country.
April 19, 2019
DESCRIPTION
Judi Dench stars as Joan Stanley an English woman working as a civil servant for the British government. In the 1930’s she was contacted by the Soviet Union to become a spy for the KGB, which she would go on to do undetected for fifty years. This true story will be the first feature film from Trevor Nunn in over two decades.
WHERE YOU WATCH

Where you watch Email alert

The movie is online and reported below, Use the alert button to get notified when higher quality versions are available.

Reports

Is Red Joan available online? Yes. Reports of pirated torrents and streams are available below.
When will Red Joan be available on digital platforms like iTunes or Amazon? As of now, there's no release data announced. This includes iTunes, Amazon, Blu-Ray and DVD.

August 09, 2019
Red.Joan.2018.1080p.BluRay.x264.DTS-iFT
Video and audio quality: 5/5 | Source: BluRay

Submitted by: Mr. Meeseeks | Trust Rank level: Supreme Member
Format: Torrent | Site: RARBG
Video ID : 1 Format : AVC Format/Info : Advanced Video Codec Format profile : [email protected] Format settings : CABAC / 5 Ref Frames Format settings, CABAC : Yes Format settings, Reference frames : 5 frames Codec ID : V_MPEG4/ISO/AVC Duration : 1 h 40 min Bit rate : 14.0 Mb/s Width : 1 920 pixels Height : 804 pixels Display aspect ratio : 2.40:1 Frame rate mode : Constant Frame rate : 24.000 FPS Color space : YUV Chroma subsampling : 4:2:0 Bit depth : 8 bits Scan type : Progressive Bits/(Pixel*Frame) : 0.378 Stream size : 9.86 GiB (95%) Writing library : x264 core 155 r2867+74 66b5600 t_mod_Custom_2 [[email protected] X86_64] Encoding settings : cabac=1 / ref=5 / deblock=1:-3:-3 / analyse=0x3:0x133 / me=umh / subme=11 / psy=1 / fade_compensate=0.00 / psy_rd=1.05:0.00 / mixed_ref=1 / me_range=32 / chroma_me=1 / trellis=2 / 8x8dct=1 / cqm=0 / deadzone=21,11 / fast_pskip=0 / chroma_qp_offset=-2 / threads=18 / lookahead_threads=3 / sliced_threads=0 / nr=0 / decimate=0 / interlaced=0 / bluray_compat=0 / constrained_intra=0 / fgo=0 / bframes=8 / b_pyramid=2 / b_adapt=2 / b_bias=0 / direct=3 / weightb=1 / open_gop=0 / weightp=2 / keyint=250 / keyint_min=24 / scenecut=40 / intra_refresh=0 / rc=2pass / mbtree=0 / bitrate=14000 / ratetol=1.0 / qcomp=0.60 / qpmin=0:0:0 / qpmax=69:69:69 / qpstep=4 / cplxblur=20.0 / qblur=0.5 / ip_ratio=1.30 / pb_ratio=1.20 / aq=3:0.80 / aq-sensitivity=10.00 / aq-factor=1.00:1.00:1.00 / aq2=0 / aq3=0 / zones=24,610,b=1.5/3096,3675,b=1.5/14235,14763,b=1.5/25800,27615,b=1.5/43673,45416,b=1.5/63706,65762,b=1.5/75360,77616,b=1.5/92462,92926,b=1.5/98920,102904,b=1.5/109917,111772,b=1.5/115306,115587,b=1.5 Language : English Default : Yes Forced : No Audio ID : 2 Format : DTS Format/Info : Digital Theater Systems Codec ID : A_DTS Duration : 1 h 40 min Bit rate mode : Constant Bit rate : 768 kb/s Channel(s) : 6 channels Channel layout : C L R Ls Rs LFE Sampling rate : 48.0 kHz Frame rate : 93.750 FPS (512 SPF) Bit depth : 16 bits Compression mode : Lossy Stream size : 554 MiB (5%) Title : DTS 5.1 1509 kbps Language : English Default : Yes Forced : No
June 17, 2019
Red.Joan.2018.1080p.WEB-DL.DD5.1.H264-CMRG
Video and audio quality: 5/5 | Source: Official web stream

Submitted by: Ivana 🌿 | Trust Rank level: Legend Member
Format: Torrent | Site: TorrentGalaxy
Duration: 1h 40min Resolution: 1908x792 Language: English

Videos Add media

Red Joan International Trailer #1 (2019) | Movieclips Trailers
Red Joan International Trailer #1 (2019) | Moviecl...